找回密码

蓝光电影网

查看: 7|回复: 0

[动作] 饿虎扑羊/虎态 Action.of.the.Tiger.1957.1080p.BluRay.x264.DTS-FGT 8.42GB

[复制链接]
蓝光币
382
发表于 2021-6-2 22:05:35 | 显示全部楼层 |阅读模式
[img][/img]

◎译  名 饿虎扑羊/虎态
◎片  名 Action of the Tiger
◎年  代 1957
◎产  地 英国,美国
◎类  别 行动 / 犯罪
◎语  言 英语
◎上映日期 1957-08-30(美国)
◎豆瓣评分 /10 from 0 users
◎豆瓣链接 https://movie.douban.com/subject/1295410/
◎片  长 93 分钟
◎导  演 特伦斯·杨 Terence Young
◎编  剧 罗伯特·卡森 Robert Carson / 彼得·迈尔斯 Peter Myers
◎主  演 范·强生 Van Johnson
       玛蒂妮·卡洛 Martine Carol
       赫伯特·罗姆 Herbert Lom
       加斯塔沃·罗乔 Gustavo Rojo
       José Nieto
       海伦哈耶 Helen Haye
       安东尼·道森 Anthony Dawson
       肖恩·康纳利 Sean Connery
       伊冯·罗曼 Yvonne Romain
       Norman Macowan
       Helen Goss
◎标  签 Yvonne_Romain | Martine_Carol | Van_Johnson | Terence_Young | Sean_Connery
◎简  介


  Carson is an American contraband runner approached by Tracy, a French woman who wants him to help rescue her brother from Albania where he is being held as a political prisoner.
  1. Video
  2. ID                                       : 1
  3. Format                                   : AVC
  4. Format/Info                              : Advanced Video Codec
  5. Format profile                           : [email protected]
  6. Format settings                          : CABAC / 4 Ref Frames
  7. Format settings, CABAC                   : Yes
  8. Format settings, Reference frames        : 4 frames
  9. Codec ID                                 : V_MPEG4/ISO/AVC
  10. Duration                                 : 1 h 32 min
  11. Bit rate                                 : 11.5 Mb/s
  12. Width                                    : 1 920 pixels
  13. Height                                   : 816 pixels
  14. Display aspect ratio                     : 2.35:1
  15. Frame rate mode                          : Constant
  16. Frame rate                               : 23.976 (24000/1001/189150) FPS
  17. Color space                              : YUV
  18. Chroma subsampling                       : 4:2:0
  19. Bit depth                                : 8 bits
  20. Scan type                                : Progressive
  21. Bits/(Pixel*Frame)                       : 0.306
  22. Stream size                              : 7.44 GiB (88%)
  23. Writing library                          : x264 core 148 r2748 97eaef2
  24. Encoding settings                        : cabac=1 / ref=4 / deblock=1:-2:-2 / analyse=0x3:0x113 / me=umh / subme=9 / psy=1 / psy_rd=1.00:0.15 / mixed_ref=1 / me_range=16 / chroma_me=1 / trellis=2 / 8x8dct=1 / cqm=0 / deadzone=21,11 / fast_pskip=1 / chroma_qp_offset=-3 / threads=24 / lookahead_threads=3 / sliced_threads=0 / nr=0 / decimate=1 / interlaced=0 / bluray_compat=0 / constrained_intra=0 / bframes=3 / b_pyramid=2 / b_adapt=1 / b_bias=0 / direct=3 / weightb=1 / open_gop=0 / weightp=2 / keyint=250 / keyint_min=25 / scenecut=40 / intra_refresh=0 / rc_lookahead=50 / rc=2pass / mbtree=1 / bitrate=11500 / ratetol=1.0 / qcomp=0.60 / qpmin=0 / qpmax=69 / qpstep=4 / cplxblur=20.0 / qblur=0.5 / vbv_maxrate=31250 / vbv_bufsize=31250 / nal_hrd=none / filler=0 / ip_ratio=1.40 / aq=1:1.00
  25. Language                                 : English
  26. Default                                  : Yes
  27. Forced                                   : No
  28. Audio
  29. ID                                       : 2
  30. Format                                   : DTS
  31. Format/Info                              : Digital Theater Systems
  32. Codec ID                                 : A_DTS
  33. Duration                                 : 1 h 32 min
  34. Bit rate mode                            : Constant
  35. Bit rate                                 : 1 509 kb/s
  36. Channel(s)                               : 2 channels
  37. Channel layout                           : L R
  38. Sampling rate                            : 48.0 kHz
  39. Frame rate                               : 93.750 FPS (512 SPF)
  40. Bit depth                                : 16 bits
  41. Compression mode                         : Lossy
  42. Stream size                              : 1 000 MiB (12%)
  43. Language                                 : English
  44. Default                                  : Yes
  45. Forced                                   : No
  46. Text
  47. ID                                       : 3
  48. Format                                   : UTF-8
  49. Codec ID                                 : S_TEXT/UTF8
  50. Codec ID/Info                            : UTF-8 Plain Text
  51. Duration                                 : 1 h 29 min
  52. Bit rate                                 : 63 b/s
  53. Count of elements                        : 1269
  54. Stream size                              : 41.4 KiB (0%)
  55. Language                                 : English
  56. Default                                  : Yes
  57. Forced                                   : No
  58. Menu
  59. 00:00:00.000                             : Chapter 1
  60. 00:01:42.102                             : Chapter 2
  61. 00:02:57.260                             : Chapter 3
  62. 00:05:54.145                             : Chapter 4
  63. 00:09:55.386                             : Chapter 5
  64. 00:13:49.829                             : Chapter 6
  65. 00:18:13.718                             : Chapter 7
  66. 00:23:28.407                             : Chapter 8
  67. 00:27:13.006                             : Chapter 9
  68. 00:32:19.938                             : Chapter 10
  69. 00:35:20.118                             : Chapter 11
  70. 00:38:12.290                             : Chapter 12
  71. 00:42:20.538                             : Chapter 13
  72. 00:46:06.097                             : Chapter 14
  73. 00:51:22.079                             : Chapter 15
  74. 00:55:46.343                             : Chapter 16
  75. 00:59:48.168                             : Chapter 17
  76. 01:03:05.281                             : Chapter 18
  77. 01:07:00.016                             : Chapter 19
  78. 01:10:09.038                             : Chapter 20
  79. 01:15:33.195                             : Chapter 21
  80. 01:21:28.967                             : Chapter 22
  81. 01:26:12.959                             : Chapter 23
  82. 01:30:39.768                             : Chapter 24
  83. 01:32:26.166                             : Chapter 25
复制代码




                                       
                                       

                                       
                                       
                                       




回复

使用道具 举报

懒得打字嘛,点击右侧快捷回复 【右侧内容,后台自定义】
您需要登录后才可以回帖 登录 | 立即加入

本版积分规则

Archiver|小黑屋| 蓝光电影网 |网站地图

Copyright © 2021 Comsenz Inc. Powered by 蓝光电影网

蓝光电影网

本站内容由用户自主分享和转载自互联网,转载目的在于传递更多信息,并不代表本网赞同其观点和对其真实性负责。

如有侵权、违反国家法律政策行为,请联系我们,我们会第一时间及时清除和处理!

举报反馈邮箱:[email protected]

快速回复 返回顶部 返回列表