找回密码

蓝光电影网

查看: 15|回复: 0

[惊悚] 撒旦之鸦 The.Blood.on.Satans.Claw.1971.REMASTERED.720p.BluRay.x264-SURCODE 3.54GB

[复制链接]
蓝光币
382
发表于 2021-4-7 16:30:16 | 显示全部楼层 |阅读模式


◎译  名 撒旦之鸦/Satan's Skin/捉妖降魔/鬼爪
◎片  名 Blood on Satan's Claw
◎年  代 1971
◎产  地 英国
◎类  别 惊悚 / 可骇
◎语  言 英语
◎上映日期 1971-04-14
◎IMDb评分  6.4/10 from 5038 users
◎IMDb链接  https://www.imdb.com/title/tt0066849/
◎豆瓣评分 5.8/10 from 91 users
◎豆瓣链接 https://movie.douban.com/subject/1295007/
◎片  长 93 分钟
◎导  演 皮尔斯·哈格德 Piers Haggard
◎编  剧 皮尔斯·哈格德 Piers Haggard / 罗伯特·温恩-西蒙斯 Robert Wynne-Simmons
◎主  演 帕特里克·怀马克 Patrick Wymark
       琳达·海登 Linda Hayden
◎标  签 英国 | 可骇 | 宗教 | 惊悚 | 英国电影 | 情色 | 1970s | 美得可骇
◎简  介


  农民Ralph Gower耕田时发现一具带有外相的尸身,他以为这是传闻中魔鬼的躯体,并把这事告诉了从伦敦来的大法官,大法官以为这只是流言蜚语。当天,Gower仆人外甥的女友早晨遭到惊吓中了邪,工作使村民们覆盖在恐惧之下,真的是传闻中的魔鬼新生了吗?最可怕的是,女孩Angel Blake饰演起原始巫术的巫师,率领青年们走向一条岔路——对魔鬼顶礼跪拜。结果是,村里更多的人被杀。工作完全向着一个疯狂的偏向成长……
  1. Video
  2. ID                                       : 1
  3. Format                                   : AVC
  4. Format/Info                              : Advanced Video Codec
  5. Format profile                           : [email protected]
  6. Format settings                          : CABAC / 8 Ref Frames
  7. Format settings, CABAC                   : Yes
  8. Format settings, Reference frames        : 8 frames
  9. Codec ID                                 : V_MPEG4/ISO/AVC
  10. Duration                                 : 1 h 36 min
  11. Bit rate                                 : 4 749 kb/s
  12. Width                                    : 1 280 pixels
  13. Height                                   : 694 pixels
  14. Display aspect ratio                     : 1.85:1
  15. Frame rate mode                          : Constant
  16. Frame rate                               : 23.976 (24000/1001/189150) FPS
  17. Color space                              : YUV
  18. Chroma subsampling                       : 4:2:0
  19. Bit depth                                : 8 bits
  20. Scan type                                : Progressive
  21. Bits/(Pixel*Frame)                       : 0.223
  22. Stream size                              : 3.20 GiB (90%)
  23. Writing library                          : x264 core 161 r3048 b86ae3c
  24. Encoding settings                        : cabac=1 / ref=8 / deblock=1:-3:-3 / analyse=0x3:0x133 / me=umh / subme=9 / psy=1 / psy_rd=1.00:0.00 / mixed_ref=1 / me_range=16 / chroma_me=1 / trellis=2 / 8x8dct=1 / cqm=0 / deadzone=21,11 / fast_pskip=0 / chroma_qp_offset=-2 / threads=22 / lookahead_threads=1 / sliced_threads=0 / nr=0 / decimate=1 / interlaced=0 / bluray_compat=0 / constrained_intra=0 / bframes=3 / b_pyramid=2 / b_adapt=2 / b_bias=0 / direct=3 / weightb=1 / open_gop=0 / weightp=2 / keyint=250 / keyint_min=23 / scenecut=40 / intra_refresh=0 / rc_lookahead=60 / rc=crf / mbtree=1 / crf=21.0 / qcomp=0.60 / qpmin=0 / qpmax=69 / qpstep=4 / ip_ratio=1.40 / aq=1:1.00
  25. Language                                 : English
  26. Default                                  : Yes
  27. Forced                                   : No

  28. Audio #1
  29. ID                                       : 2
  30. Format                                   : FLAC
  31. Format/Info                              : Free Lossless Audio Codec
  32. Codec ID                                 : A_FLAC
  33. Duration                                 : 1 h 36 min
  34. Bit rate mode                            : Variable
  35. Bit rate                                 : 264 kb/s
  36. Channel(s)                               : 2 channels
  37. Channel layout                           : L R
  38. Sampling rate                            : 48.0 kHz
  39. Frame rate                               : 11.719 FPS (4096 SPF)
  40. Bit depth                                : 16 bits
  41. Compression mode                         : Lossless
  42. Stream size                              : 182 MiB (5%)
  43. Writing library                          : libFLAC 1.3.2 (UTC 2017-01-01)
  44. Language                                 : English
  45. Default                                  : Yes
  46. Forced                                   : No

  47. Audio #2
  48. ID                                       : 3
  49. Format                                   : AAC LC
  50. Format/Info                              : Advanced Audio Codec Low Complexity
  51. Codec ID                                 : A_AAC-2
  52. Duration                                 : 1 h 36 min
  53. Bit rate                                 : 89.5 kb/s
  54. Channel(s)                               : 2 channels
  55. Channel layout                           : L R
  56. Sampling rate                            : 48.0 kHz
  57. Frame rate                               : 46.875 FPS (1024 SPF)
  58. Compression mode                         : Lossy
  59. Delay relative to video                  : 9 ms
  60. Stream size                              : 61.8 MiB (2%)
  61. Title                                    : commentary
  62. Language                                 : English
  63. Default                                  : No
  64. Forced                                   : No

  65. Audio #3
  66. ID                                       : 4
  67. Format                                   : AAC LC
  68. Format/Info                              : Advanced Audio Codec Low Complexity
  69. Codec ID                                 : A_AAC-2
  70. Duration                                 : 1 h 36 min
  71. Bit rate                                 : 132 kb/s
  72. Channel(s)                               : 2 channels
  73. Channel layout                           : L R
  74. Sampling rate                            : 48.0 kHz
  75. Frame rate                               : 46.875 FPS (1024 SPF)
  76. Compression mode                         : Lossy
  77. Delay relative to video                  : 9 ms
  78. Stream size                              : 89.9 MiB (2%)
  79. Title                                    : commentary
  80. Language                                 : English
  81. Default                                  : No
  82. Forced                                   : No

  83. Text #1
  84. ID                                       : 5
  85. Format                                   : PGS
  86. Muxing mode                              : zlib
  87. Codec ID                                 : S_HDMV/PGS
  88. Codec ID/Info                            : Picture based subtitle format used on BDs/HD-DVDs
  89. Duration                                 : 1 h 32 min
  90. Bit rate                                 : 15.0 kb/s
  91. Count of elements                        : 1179
  92. Stream size                              : 9.95 MiB (0%)
  93. Language                                 : English
  94. Default                                  : No
  95. Forced                                   : No

  96. Text #2
  97. ID                                       : 6
  98. Format                                   : PGS
  99. Muxing mode                              : zlib
  100. Codec ID                                 : S_HDMV/PGS
  101. Codec ID/Info                            : Picture based subtitle format used on BDs/HD-DVDs
  102. Duration                                 : 1 h 32 min
  103. Bit rate                                 : 16.8 kb/s
  104. Count of elements                        : 1196
  105. Stream size                              : 11.1 MiB (0%)
  106. Language                                 : German
  107. Default                                  : No
  108. Forced                                   : No

  109. Menu
  110. 00:00:00.000                             : en:Chapter 01
  111. 00:07:04.424                             : en:Chapter 02
  112. 00:16:15.975                             : en:Chapter 03
  113. 00:23:40.419                             : en:Chapter 04
  114. 00:33:01.980                             : en:Chapter 05
  115. 00:40:16.414                             : en:Chapter 06
  116. 00:46:28.786                             : en:Chapter 07
  117. 00:58:34.511                             : en:Chapter 08
  118. 01:05:14.911                             : en:Chapter 09
  119. 01:12:27.343                             : en:Chapter 10
  120. 01:18:53.729                             : en:Chapter 11
  121. 01:32:11.526                             : en:Chapter 12
复制代码




                                       
                                       

                                       
                                       
                                       




回复

使用道具 举报

懒得打字嘛,点击右侧快捷回复 【右侧内容,后台自定义】
您需要登录后才可以回帖 登录 | 立即加入

本版积分规则

Archiver|小黑屋| 蓝光电影网 |网站地图

Copyright © 2021 Comsenz Inc. Powered by 蓝光电影网

蓝光电影网

本站内容由用户自主分享和转载自互联网,转载目的在于传递更多信息,并不代表本网赞同其观点和对其真实性负责。

如有侵权、违反国家法律政策行为,请联系我们,我们会第一时间及时清除和处理!

举报反馈邮箱:[email protected]

快速回复 返回顶部 返回列表