找回密码

蓝光电影网

查看: 38|回复: 0

[爱情] 麦肯纳的黄金/神龙猛虎闯金关 Mackennas.Gold.1969.1080p.BluRay.x264.DTS-FGT 10.38GB

[复制链接]
蓝光币
426
发表于 2020-10-16 09:49:21 | 显示全部楼层 |阅读模式


◎译  名 麦肯纳的黄金/神龙猛虎闯金关(港)
◎片  名 Mackenna's Gold
◎年  代 1969
◎产  地 美国
◎类  别 恋爱 / 西部
◎语  言 英语
◎上映日期 1969-03-18
◎IMDb评分  6.8/10 from 7842 users
◎IMDb链接  https://www.imdb.com/title/tt0064615/
◎豆瓣评分 6.6/10 from 80 users
◎豆瓣链接 https://movie.douban.com/subject/1298904/
◎片  长 128 分钟
◎导  演 J·李·汤普森 J. Lee Thompson
◎编  剧 卡尔·福尔曼 Carl Foreman / 赫克·艾伦 Heck Allen
◎主  演 Rudy Diaz
       大卫·加菲尔德 David Garfield
       爱德华多·钱内利 Eduardo Ciannelli
       Duke Hobbie
       Madeleine Taylor Holmes
       维克托·乔里 Victor Jory
       罗伯特·菲利普斯 Robert Phillips
       Dick Peabody
       奥马尔·沙里夫 Omar Sharif
       Pepe Callahan
       特利·萨瓦拉斯 Telly Savalas
       Ted Cassidy
       朱莉·纽玛 Julie Newmar
       格利高里·派克 Gregory Peck
       埃里·瓦拉赫 Eli Wallach
       李·科布 Lee J. Cobb
       爱德华·罗宾逊 Edward G. Robinson
       雪莉·莫里森 Shelley Morrison
       布吉斯·梅迪斯 Burgess Meredith
       卡蜜拉·斯帕芙 Camilla Sparv
       雷蒙德·马西 Raymond Massey
       安东尼·奎尔 Anthony Quayle
       特雷弗·巴德特 Trevor Bardette
       基南·怀恩 Keenan Wynn
◎标  签 美国 | 西部 | 西部片 | 格里高利·派克 | 1969 | GregoryPeck | 麦肯纳的黄金 | 美國
◎简  介


  麦肯纳是一位美国的警长,受托保管一张传奇的黄金谷舆图。忽然间,他和那张舆图成为当地一帮伏莽和镇民的首要方针;而为了贪心及对于配合的仇敌阿帕奇族,伏莽和镇民居然连系成一气。最初,那些为黄金沉迷的男男女女别离获得了分歧的了局……
  1. Video
  2. ID                                       : 1
  3. Format                                   : AVC
  4. Format/Info                              : Advanced Video Codec
  5. Format profile                           : [email protected]
  6. Format settings                          : CABAC / 4 Ref Frames
  7. Format settings, CABAC                   : Yes
  8. Format settings, Reference frames        : 4 frames
  9. Codec ID                                 : V_MPEG4/ISO/AVC
  10. Duration                                 : 2 h 8 min
  11. Bit rate                                 : 9 849 kb/s
  12. Width                                    : 1 920 pixels
  13. Height                                   : 816 pixels
  14. Display aspect ratio                     : 2.35:1
  15. Frame rate mode                          : Constant
  16. Frame rate                               : 23.976 (24000/1001/189150) FPS
  17. Color space                              : YUV
  18. Chroma subsampling                       : 4:2:0
  19. Bit depth                                : 8 bits
  20. Scan type                                : Progressive
  21. Bits/(Pixel*Frame)                       : 0.262
  22. Stream size                              : 8.82 GiB (85%)
  23. Writing library                          : x264 core 146 r2538 121396c
  24. Encoding settings                        : cabac=1 / ref=4 / deblock=1:-3:-2 / analyse=0x3:0x113 / me=umh / subme=11 / psy=1 / psy_rd=1.00:0.15 / mixed_ref=1 / me_range=32 / chroma_me=1 / trellis=2 / 8x8dct=1 / cqm=0 / deadzone=21,11 / fast_pskip=0 / chroma_qp_offset=-3 / threads=6 / lookahead_threads=1 / sliced_threads=0 / nr=0 / decimate=1 / interlaced=0 / bluray_compat=0 / constrained_intra=0 / bframes=7 / b_pyramid=2 / b_adapt=2 / b_bias=0 / direct=1 / weightb=1 / open_gop=0 / weightp=2 / keyint=230 / keyint_min=23 / scenecut=40 / intra_refresh=0 / rc_lookahead=40 / rc=crf / mbtree=0 / crf=17.6 / qcomp=0.60 / qpmin=0 / qpmax=69 / qpstep=4 / vbv_maxrate=62500 / vbv_bufsize=78125 / crf_max=0.0 / nal_hrd=none / filler=0 / ip_ratio=1.40 / pb_ratio=1.30 / aq=1:1.00
  25. Language                                 : English
  26. Default                                  : Yes
  27. Forced                                   : No

  28. Audio
  29. ID                                       : 2
  30. Format                                   : DTS
  31. Format/Info                              : Digital Theater Systems
  32. Codec ID                                 : A_DTS
  33. Duration                                 : 2 h 8 min
  34. Bit rate mode                            : Constant
  35. Bit rate                                 : 1 509 kb/s
  36. Channel(s)                               : 2 channels
  37. Channel layout                           : Lt Rt
  38. Sampling rate                            : 48.0 kHz
  39. Frame rate                               : 93.750 FPS (512 SPF)
  40. Bit depth                                : 24 bits
  41. Compression mode                         : Lossy
  42. Stream size                              : 1.35 GiB (13%)
  43. Language                                 : English
  44. Default                                  : Yes
  45. Forced                                   : No

  46. Text
  47. ID                                       : 3
  48. Format                                   : UTF-8
  49. Codec ID                                 : S_TEXT/UTF8
  50. Codec ID/Info                            : UTF-8 Plain Text
  51. Language                                 : English
  52. Default                                  : Yes
  53. Forced                                   : No

  54. Menu
  55. 00:00:00.000                             : :Chapter 01
  56. 00:08:01.814                             : :Chapter 02
  57. 00:21:54.813                             : :Chapter 03
  58. 00:31:03.692                             : :Chapter 04
  59. 00:42:42.476                             : :Chapter 05
  60. 00:51:23.746                             : :Chapter 06
  61. 01:04:33.077                             : :Chapter 07
  62. 01:14:31.800                             : :Chapter 08
  63. 01:23:19.077                             : :Chapter 09
  64. 01:35:43.738                             : :Chapter 10
  65. 01:45:07.716                             : :Chapter 11
  66. 01:58:03.283                             : :Chapter 12
  67. 02:08:15.060                             : :Chapter 13
复制代码








                                       
                                       

                                       
                                       
                                       




回复

使用道具 举报

懒得打字嘛,点击右侧快捷回复 【右侧内容,后台自定义】
您需要登录后才可以回帖 登录 | 立即加入

本版积分规则

Archiver|小黑屋| 蓝光电影网 |网站地图

Copyright © 2021 Comsenz Inc. Powered by 蓝光电影网

蓝光电影网

本站内容由用户自主分享和转载自互联网,转载目的在于传递更多信息,并不代表本网赞同其观点和对其真实性负责。

如有侵权、违反国家法律政策行为,请联系我们,我们会第一时间及时清除和处理!

举报反馈邮箱:[email protected]

快速回复 返回顶部 返回列表