找回密码

蓝光电影网

查看: 14|回复: 0

[惊悚] 活着(美版)/孤独 Alone.2020.720p.BluRay.x264-GUACAMOLE 2.68GB

[复制链接]
蓝光币
382
发表于 2021-4-1 09:12:54 | 显示全部楼层 |阅读模式


◎译  名 在世(美版)/孤独/单独一人
◎片  名 Alone
◎年  代 2020
◎产  地 美国
◎类  别 惊悚
◎语  言 英语
◎上映日期 2020-10-16(美国)
◎IMDb评分  4.8/10 from 1714 users
◎IMDb链接  https://www.imdb.com/title/tt10192566/
◎豆瓣评分 4.7/10 from 451 users
◎豆瓣链接 https://movie.douban.com/subject/34873398/
◎片  长 92分钟
◎导  演 约翰尼·马丁 Johnny Martin
◎编  剧 马特·奈勒 Matt Naylor
◎主  演 泰勒·珀西 Tyler Posey
       唐纳德·萨瑟兰 Donald Sutherland
       罗伯特·理查德 Robert Ri'chard
       约翰·波西 John Posey
       埃里克·艾特巴里 Eric Etebari
       玛格丽塔·雷耶斯 Margarita Reyes
       Greg Fitzpatrick
       玛雅·卡林 Maya Karin
       莎莫·斯皮罗 Summer Spiro
◎标  签 行尸 | 惊悚 | 美国电影 | 美国 | 末世 | T灾难 | 2020 | 唐纳德·萨瑟兰
◎简  介


  唐纳德·萨瑟兰、泰勒·珀西将主演惊悚片[单独一人](Alone,暂译)。本片由约翰尼·马丁执导,Matt Naylor撰写剧本。故事报告艾丹(珀西饰)把自己关在公寓里以躲避占据楼群的尖叫者。随着天下堕入紊乱,艾丹在他的院子里发现一个被困的女孩(Summer Spiro饰)。二人在为求生找前途的进程中,成长出了一段恋爱。
  1. Video
  2. ID                                       : 1
  3. Format                                   : AVC
  4. Format/Info                              : Advanced Video Codec
  5. Format profile                           : [email protected]
  6. Format settings                          : CABAC / 8 Ref Frames
  7. Format settings, CABAC                   : Yes
  8. Format settings, Reference frames        : 8 frames
  9. Codec ID                                 : V_MPEG4/ISO/AVC
  10. Duration                                 : 1 h 32 min
  11. Bit rate                                 : 3 511 kb/s
  12. Width                                    : 1 280 pixels
  13. Height                                   : 534 pixels
  14. Display aspect ratio                     : 2.40:1
  15. Frame rate mode                          : Constant
  16. Frame rate                               : 24.000 FPS
  17. Color space                              : YUV
  18. Chroma subsampling                       : 4:2:0
  19. Bit depth                                : 8 bits
  20. Scan type                                : Progressive
  21. Bits/(Pixel*Frame)                       : 0.214
  22. Stream size                              : 2.26 GiB (84%)
  23. Writing library                          : x264 core 161 r3048 b86ae3c
  24. Encoding settings                        : cabac=1 / ref=8 / deblock=1:-3:-3 / analyse=0x3:0x133 / me=umh / subme=9 / psy=1 / psy_rd=1.00:0.00 / mixed_ref=1 / me_range=16 / chroma_me=1 / trellis=2 / 8x8dct=1 / cqm=0 / deadzone=21,11 / fast_pskip=0 / chroma_qp_offset=-2 / threads=17 / lookahead_threads=1 / sliced_threads=0 / nr=0 / decimate=1 / interlaced=0 / bluray_compat=0 / constrained_intra=0 / bframes=3 / b_pyramid=2 / b_adapt=2 / b_bias=0 / direct=3 / weightb=1 / open_gop=0 / weightp=2 / keyint=250 / keyint_min=24 / scenecut=40 / intra_refresh=0 / rc_lookahead=60 / rc=crf / mbtree=1 / crf=17.0 / qcomp=0.60 / qpmin=0 / qpmax=69 / qpstep=4 / ip_ratio=1.40 / aq=3:1.00
  25. Default                                  : Yes
  26. Forced                                   : No
  27. Color range                              : Limited
  28. Matrix coefficients                      : BT.709
  29. Audio
  30. ID                                       : 2
  31. Format                                   : AC-3
  32. Format/Info                              : Audio Coding 3
  33. Commercial name                          : Dolby Digital
  34. Codec ID                                 : A_AC3
  35. Duration                                 : 1 h 32 min
  36. Bit rate mode                            : Constant
  37. Bit rate                                 : 640 kb/s
  38. Channel(s)                               : 6 channels
  39. Channel layout                           : L R C LFE Ls Rs
  40. Sampling rate                            : 48.0 kHz
  41. Frame rate                               : 31.250 FPS (1536 SPF)
  42. Compression mode                         : Lossy
  43. Stream size                              : 421 MiB (15%)
  44. Language                                 : English
  45. Service kind                             : Complete Main
  46. Default                                  : Yes
  47. Forced                                   : No
  48. Text #1
  49. ID                                       : 3
  50. Format                                   : UTF-8
  51. Codec ID                                 : S_TEXT/UTF8
  52. Codec ID/Info                            : UTF-8 Plain Text
  53. Duration                                 : 1 h 27 min
  54. Bit rate                                 : 0 b/s
  55. Count of elements                        : 12
  56. Stream size                              : 445 Bytes (0%)
  57. Language                                 : English
  58. Default                                  : Yes
  59. Forced                                   : Yes
  60. Text #2
  61. ID                                       : 4
  62. Format                                   : PGS
  63. Muxing mode                              : zlib
  64. Codec ID                                 : S_HDMV/PGS
  65. Codec ID/Info                            : Picture based subtitle format used on BDs/HD-DVDs
  66. Duration                                 : 1 h 27 min
  67. Bit rate                                 : 397 b/s
  68. Count of elements                        : 24
  69. Stream size                              : 255 KiB (0%)
  70. Title                                    : Forced
  71. Language                                 : English
  72. Default                                  : No
  73. Forced                                   : No
  74. Text #3
  75. ID                                       : 5
  76. Format                                   : PGS
  77. Muxing mode                              : zlib
  78. Codec ID                                 : S_HDMV/PGS
  79. Codec ID/Info                            : Picture based subtitle format used on BDs/HD-DVDs
  80. Duration                                 : 1 h 27 min
  81. Bit rate                                 : 24.6 kb/s
  82. Count of elements                        : 1842
  83. Stream size                              : 15.4 MiB (1%)
  84. Title                                    : Vobsubs
  85. Language                                 : German
  86. Default                                  : No
  87. Forced                                   : No
  88. Menu
  89. 00:00:00.000                             : en:00:00:00.000
  90. 00:02:22.208                             : en:00:02:22.208
  91. 00:10:17.583                             : en:00:10:17.583
  92. 00:18:31.375                             : en:00:18:31.375
  93. 00:26:12.458                             : en:00:26:12.458
  94. 00:32:23.292                             : en:00:32:23.292
  95. 00:39:04.333                             : en:00:39:04.333
  96. 00:44:15.167                             : en:00:44:15.167
  97. 00:50:06.875                             : en:00:50:06.875
  98. 00:53:50.667                             : en:00:53:50.667
  99. 00:57:50.042                             : en:00:57:50.042
  100. 01:01:45.125                             : en:01:01:45.125
  101. 01:09:09.583                             : en:01:09:09.583
  102. 01:16:19.875                             : en:01:16:19.875
  103. 01:21:14.833                             : en:01:21:14.833
  104. 01:29:03.125                             : en:01:29:03.125
复制代码




                                       
                                       

                                       
                                       
                                       




回复

使用道具 举报

懒得打字嘛,点击右侧快捷回复 【右侧内容,后台自定义】
您需要登录后才可以回帖 登录 | 立即加入

本版积分规则

Archiver|小黑屋| 蓝光电影网 |网站地图

Copyright © 2021 Comsenz Inc. Powered by 蓝光电影网

蓝光电影网

本站内容由用户自主分享和转载自互联网,转载目的在于传递更多信息,并不代表本网赞同其观点和对其真实性负责。

如有侵权、违反国家法律政策行为,请联系我们,我们会第一时间及时清除和处理!

举报反馈邮箱:[email protected]

快速回复 返回顶部 返回列表