找回密码

蓝光电影网

查看: 11|回复: 0

[喜剧] 天才與白痴 The.Last.Message.1975.MANDARiN.DUBBED.720p.BluRay.x264-REGRET 3.28GB

[复制链接]
蓝光币
382
发表于 2019-10-21 18:18:55 | 显示全部楼层 |阅读模式


◎译  名 天赋与痴人 / Crazy Money / The Last Message
◎片  名 天赋與痴人
◎年  代 1975
◎产  地 中国香港
◎类  别 笑剧
◎语  言 粤语
◎上映日期 1975-08-21(中国香港)
◎IMDb评分  6.7/10 from 129 users
◎IMDb链接  https://www.imdb.com/title/tt0100776
◎豆瓣评分 7.4/10 from 3817 users
◎豆瓣链接 https://movie.douban.com/subject/1298003/
◎片  长 98 分钟
◎导  演 许冠文 Michael Koon Man Hui
◎编  剧 许冠文 Michael Koon Man Hui / 薛志雄 Louis Sit / 刘天赐 Tin-Chi Lau
◎主  演 乔宏 Roy Chiao
       许冠文 Michael Koon Man Hui
       许冠杰 Samuel Hui

◎标  签 香港 | 许冠文 | 笑剧 | 香港电影 | 许冠杰 | 许氏笑剧 | 1975 | 1970s
◎简  介  
  李护士(许冠杰 饰)是精神医院的护士,一次偶然间,他发现了医院的打杂阿添(许冠文 饰)经常在停尸间盗取死去的病患身上的珍贵物品。因而,李护士提出四六分账,阿添无法接管,两人就这样合作干起了这个偷鸡摸狗的行当。一日,医院新来了一位病人大只佬乔明,他入院未几就神经病发归天了。阿添在停尸间里发现了乔明身上带有一些宝贵古玩的碎片。兴奋不已的两人观察后得知乔明有一个女儿,人称公主。他们找到了公主,利用公主后得知乔明生前经常在香港一个海滩潜水。两人来到海滩后轻易找到了代价连城的古玩,但这时,意外发生了!
  1. Video
  2. ID                                       : 1
  3. Format                                   : AVC
  4. Format/Info                              : Advanced Video Codec
  5. Format profile                           : [email protected]
  6. Format settings                          : CABAC / 5 Ref Frames
  7. Format settings, CABAC                   : Yes
  8. Format settings, Reference frames        : 5 frames
  9. Codec ID                                 : V_MPEG4/ISO/AVC
  10. Duration                                 : 1 h 36 min
  11. Bit rate                                 : 4 216 kb/s
  12. Width                                    : 1 280 pixels
  13. Height                                   : 544 pixels
  14. Display aspect ratio                     : 2.35:1
  15. Frame rate mode                          : Constant
  16. Frame rate                               : 23.976 (24000/1001) FPS
  17. Color space                              : YUV
  18. Chroma subsampling                       : 4:2:0
  19. Bit depth                                : 8 bits
  20. Scan type                                : Progressive
  21. Bits/(Pixel*Frame)                       : 0.253
  22. Stream size                              : 2.84 GiB (87%)
  23. Writing library                          : x264 core 157 r2970 5493be8
  24. Encoding settings                        : cabac=1 / ref=5 / deblock=1:-3:-3 / analyse=0x3:0x133 / me=umh / subme=9 / psy=1 / psy_rd=1.00:0.00 / mixed_ref=1 / me_range=16 / chroma_me=1 / trellis=2 / 8x8dct=1 / cqm=0 / deadzone=21,11 / fast_pskip=0 / chroma_qp_offset=-2 / threads=17 / lookahead_threads=1 / sliced_threads=0 / nr=0 / decimate=1 / interlaced=0 / bluray_compat=0 / constrained_intra=0 / bframes=3 / b_pyramid=2 / b_adapt=1 / b_bias=0 / direct=3 / weightb=1 / open_gop=0 / weightp=2 / keyint=240 / keyint_min=24 / scenecut=40 / intra_refresh=0 / rc_lookahead=50 / rc=2pass / mbtree=1 / bitrate=4216 / ratetol=1.0 / qcomp=0.60 / qpmin=0 / qpmax=69 / qpstep=4 / cplxblur=20.0 / qblur=0.5 / ip_ratio=1.40 / aq=1:1.00
  25. Language                                 : English
  26. Default                                  : Yes
  27. Forced                                   : No

  28. Audio
  29. ID                                       : 2
  30. Format                                   : AC-3
  31. Format/Info                              : Audio Coding 3
  32. Commercial name                          : Dolby Digital
  33. Codec ID                                 : A_AC3
  34. Duration                                 : 1 h 36 min
  35. Bit rate mode                            : Constant
  36. Bit rate                                 : 640 kb/s
  37. Channel(s)                               : 6 channels
  38. Channel layout                           : L R C LFE Ls Rs
  39. Sampling rate                            : 48.0 kHz
  40. Frame rate                               : 31.250 FPS (1536 SPF)
  41. Bit depth                                : 16 bits
  42. Compression mode                         : Lossy
  43. Stream size                              : 441 MiB (13%)
  44. Language                                 : Chinese
  45. Service kind                             : Complete Main
  46. Default                                  : Yes
  47. Forced                                   : No

  48. Menu
  49. 00:00:00.000                             : en:00:00:00.000
  50. 00:03:24.996                             : en:00:03:24.996
  51. 00:06:43.987                             : en:00:06:43.987
  52. 00:12:55.316                             : en:00:12:55.316
  53. 00:16:01.502                             : en:00:16:01.502
  54. 00:20:11.710                             : en:00:20:11.710
  55. 00:25:38.537                             : en:00:25:38.537
  56. 00:28:57.778                             : en:00:28:57.778
  57. 00:33:55.659                             : en:00:33:55.659
  58. 00:39:41.921                             : en:00:39:41.921
  59. 00:45:46.535                             : en:00:45:46.535
  60. 00:50:29.193                             : en:00:50:29.193
  61. 00:57:30.364                             : en:00:57:30.364
  62. 01:01:38.111                             : en:01:01:38.111
  63. 01:04:11.514                             : en:01:04:11.514
  64. 01:08:15.049                             : en:01:08:15.049
  65. 01:15:06.252                             : en:01:15:06.252
  66. 01:20:24.945                             : en:01:20:24.945
  67. 01:25:35.881                             : en:01:25:35.881
  68. 01:29:44.713                             : en:01:29:44.713
复制代码




                                       
                                       

                                       
                                       
                                       




回复

使用道具 举报

懒得打字嘛,点击右侧快捷回复 【右侧内容,后台自定义】
您需要登录后才可以回帖 登录 | 立即加入

本版积分规则

Archiver|小黑屋| 蓝光电影网 |网站地图

Copyright © 2021 Comsenz Inc. Powered by 蓝光电影网

蓝光电影网

本站内容由用户自主分享和转载自互联网,转载目的在于传递更多信息,并不代表本网赞同其观点和对其真实性负责。

如有侵权、违反国家法律政策行为,请联系我们,我们会第一时间及时清除和处理!

举报反馈邮箱:[email protected]

快速回复 返回顶部 返回列表