找回密码

蓝光电影网

查看: 14|回复: 0

[科幻] 占有者 Possessor.2020.UNCUT.1080p.BluRay.x264-SOIGNEUR 14.54GB

[复制链接]
蓝光币
382
发表于 2020-12-10 17:17:25 | 显示全部楼层 |阅读模式
[img][/img]

◎译  名 占有者/Possessor Uncut
◎片  名 Possessor
◎年  代 2020
◎产  地 加拿大,英国
◎类  别 科幻 / 惊悚
◎语  言 英语
◎上映日期 2020-01-25(圣丹斯电影节) / 2020-10-02(美国)
◎IMDb评分  6.4/10 from 9360 users
◎IMDb链接  https://www.imdb.com/title/tt5918982/
◎豆瓣评分 6.0/10 from 1848 users
◎豆瓣链接 https://movie.douban.com/subject/30220880/
◎片  长 103分钟
◎导  演 布兰登·柯南伯格 Brandon Cronenberg
◎编  剧 布兰登·柯南伯格 Brandon Cronenberg
◎主  演 肖恩·宾 Sean Bean
       汉娜克·塔波特 Hanneke Talbot
       詹妮弗·杰森·李 Jennifer Jason Leigh
       安德丽娅·赖斯伯勒 Andrea Riseborough
       瑞秋·克劳福德 Rachael Crawford
       塔彭丝·米德尔顿 Tuppence Middleton
       罗西弗·萨瑟兰 Rossif Sutherland
       盖奇·格雷厄姆·阿布斯诺特 Gage Graham-Arbuthnot
       丹尼·沃 Danny Waugh
       克里斯托弗·阿波特 Christopher Abbott
       雷欧·巴奈扎 Raoul Bhaneja
       克里斯托弗·贾科特 Christopher Jacot
       卡内赫迪奥·霍恩 Kaniehtiio Horn
       黛拉格·坎贝尔 Deragh Campbell
       道格·麦克劳德 Doug MacLeod
◎标  签 科幻 | 惊悚 | 犯罪 | 2020 | 加拿大 | 英国 | 电影 | 詹妮弗·杰森·李
◎简  介


  报告一个奥秘构造的奸细Tasya Vos操纵大脑植入技术来“栖息”在他人的身材里,驱使他们为某些高薪客户履行暗杀使命。但是一次例行工作出了过失,她很快发现自己堕入了一个不知情的怀疑犯的思惟中,其对暴力的愿望致使她要和自己作斗争。
◎获奖情况
  第33届东京国际电影节 ?(2020)
  东京首映2020(提名) 布兰登·柯南伯格
  1. Video
  2. ID                                       : 1
  3. Format                                   : AVC
  4. Format/Info                              : Advanced Video Codec
  5. Format profile                           : [email protected]
  6. Format settings                          : CABAC / 4 Ref Frames
  7. Format settings, CABAC                   : Yes
  8. Format settings, Reference frames        : 4 frames
  9. Codec ID                                 : V_MPEG4/ISO/AVC
  10. Duration                                 : 1 h 44 min
  11. Bit rate                                 : 17.7 Mb/s
  12. Width                                    : 1 920 pixels
  13. Height                                   : 1 080 pixels
  14. Display aspect ratio                     : 16:9
  15. Frame rate mode                          : Constant
  16. Frame rate                               : 23.976 (24000/1001/189150) FPS
  17. Color space                              : YUV
  18. Chroma subsampling                       : 4:2:0
  19. Bit depth                                : 8 bits
  20. Scan type                                : Progressive
  21. Bits/(Pixel*Frame)                       : 0.355
  22. Stream size                              : 12.9 GiB (88%)
  23. Writing library                          : x264 core 161 r3027 4121277
  24. Encoding settings                        : cabac=1 / ref=4 / deblock=1:-3:-3 / analyse=0x3:0x133 / me=umh / subme=10 / psy=1 / psy_rd=1.20:0.00 / mixed_ref=1 / me_range=24 / chroma_me=1 / trellis=2 / 8x8dct=1 / cqm=0 / deadzone=21,11 / fast_pskip=0 / chroma_qp_offset=-2 / threads=24 / lookahead_threads=4 / sliced_threads=0 / nr=0 / decimate=0 / interlaced=0 / bluray_compat=0 / constrained_intra=0 / bframes=8 / b_pyramid=2 / b_adapt=2 / b_bias=0 / direct=3 / weightb=1 / open_gop=0 / weightp=2 / keyint=250 / keyint_min=23 / scenecut=40 / intra_refresh=0 / rc_lookahead=60 / rc=crf / mbtree=1 / crf=16.0 / qcomp=0.60 / qpmin=0 / qpmax=69 / qpstep=4 / ip_ratio=1.40 / aq=3:0.90
  25. Default                                  : Yes
  26. Forced                                   : No
  27. Color range                              : Limited
  28. Matrix coefficients                      : BT.709

  29. Audio
  30. ID                                       : 2
  31. Format                                   : DTS XLL
  32. Format/Info                              : Digital Theater Systems
  33. Commercial name                          : DTS-HD Master Audio
  34. Codec ID                                 : A_DTS
  35. Duration                                 : 1 h 44 min
  36. Bit rate mode                            : Variable
  37. Bit rate                                 : 2 285 kb/s
  38. Channel(s)                               : 6 channels
  39. Channel layout                           : C L R Ls Rs LFE
  40. Sampling rate                            : 48.0 kHz
  41. Frame rate                               : 93.750 FPS (512 SPF)
  42. Bit depth                                : 24 bits
  43. Compression mode                         : Lossless
  44. Stream size                              : 1.67 GiB (11%)
  45. Language                                 : English
  46. Default                                  : Yes
  47. Forced                                   : No

  48. Text
  49. ID                                       : 3
  50. Format                                   : PGS
  51. Muxing mode                              : zlib
  52. Codec ID                                 : S_HDMV/PGS
  53. Codec ID/Info                            : Picture based subtitle format used on BDs/HD-DVDs
  54. Duration                                 : 1 h 35 min
  55. Bit rate                                 : 23.4 kb/s
  56. Count of elements                        : 1532
  57. Stream size                              : 16.0 MiB (0%)
  58. Title                                    : SDH
  59. Language                                 : English
  60. Default                                  : No
  61. Forced                                   : No

  62. Menu
  63. 00:00:00.000                             : en:Chapter 01
  64. 00:07:47.425                             : en:Chapter 02
  65. 00:15:07.907                             : en:Chapter 03
  66. 00:22:31.433                             : en:Chapter 04
  67. 00:31:58.250                             : en:Chapter 05
  68. 00:41:37.412                             : en:Chapter 06
  69. 00:50:17.348                             : en:Chapter 07
  70. 01:06:07.005                             : en:Chapter 08
  71. 01:15:38.576                             : en:Chapter 09
  72. 01:23:37.679                             : en:Chapter 10
  73. 01:37:13.953                             : en:Chapter 11
复制代码



                                       
                                       

                                       
                                       
                                       




回复

使用道具 举报

懒得打字嘛,点击右侧快捷回复 【右侧内容,后台自定义】
您需要登录后才可以回帖 登录 | 立即加入

本版积分规则

Archiver|小黑屋| 蓝光电影网 |网站地图

Copyright © 2021 Comsenz Inc. Powered by 蓝光电影网

蓝光电影网

本站内容由用户自主分享和转载自互联网,转载目的在于传递更多信息,并不代表本网赞同其观点和对其真实性负责。

如有侵权、违反国家法律政策行为,请联系我们,我们会第一时间及时清除和处理!

举报反馈邮箱:[email protected]

快速回复 返回顶部 返回列表