找回密码

蓝光电影网

查看: 10|回复: 0

[惊悚] 恶人丧胆/恶寡妇 Cry.For.The.Bad.Man.2019.720p.BluRay.x264-RUSTED 2.46GB

[复制链接]
蓝光币
382
发表于 2021-3-27 09:42:03 | 显示全部楼层 |阅读模式


◎译  名 恶人丧胆/恶孀妇
◎片  名 Cry for the Bad Man
◎年  代 2019
◎产  地 美国
◎类  别 惊悚 / 可骇
◎语  言 英语
◎上映日期 2019-01-19(美国)
◎IMDb评分  3.8/10 from 99 users
◎IMDb链接  https://www.imdb.com/title/tt8110000/
◎豆瓣评分 /10 from 0 users
◎豆瓣链接 https://movie.douban.com/subject/35057655/
◎片  长 70分钟
◎主  演 卡米尔·基顿 Camille Keaton
◎简  介


  A small town widow (Camille Keaton) faces a grisly confrontation with her would-be extortionists.
  1. Video
  2. ID                                       : 1
  3. Format                                   : AVC
  4. Format/Info                              : Advanced Video Codec
  5. Format profile                           : [email protected]
  6. Format settings                          : CABAC / 8 Ref Frames
  7. Format settings, CABAC                   : Yes
  8. Format settings, Reference frames        : 8 frames
  9. Codec ID                                 : V_MPEG4/ISO/AVC
  10. Duration                                 : 1 h 14 min
  11. Bit rate                                 : 4 088 kb/s
  12. Width                                    : 1 280 pixels
  13. Height                                   : 674 pixels
  14. Display aspect ratio                     : 1.899
  15. Frame rate mode                          : Constant
  16. Frame rate                               : 23.976 (24000/1001/189150) FPS
  17. Color space                              : YUV
  18. Chroma subsampling                       : 4:2:0
  19. Bit depth                                : 8 bits
  20. Scan type                                : Progressive
  21. Bits/(Pixel*Frame)                       : 0.198
  22. Stream size                              : 2.12 GiB (86%)
  23. Writing library                          : x264 core 161 r3048 b86ae3c
  24. Encoding settings                        : cabac=1 / ref=8 / deblock=1:-3:-3 / analyse=0x3:0x133 / me=umh / subme=9 / psy=1 / psy_rd=1.00:0.00 / mixed_ref=1 / me_range=16 / chroma_me=1 / trellis=2 / 8x8dct=1 / cqm=0 / deadzone=21,11 / fast_pskip=0 / chroma_qp_offset=-2 / threads=24 / lookahead_threads=2 / sliced_threads=0 / nr=0 / decimate=0 / interlaced=0 / bluray_compat=0 / constrained_intra=0 / bframes=3 / b_pyramid=2 / b_adapt=2 / b_bias=0 / direct=3 / weightb=1 / open_gop=0 / weightp=2 / keyint=250 / keyint_min=23 / scenecut=40 / intra_refresh=0 / rc=crf / mbtree=0 / crf=18.0 / qcomp=0.60 / qpmin=0 / qpmax=69 / qpstep=4 / ip_ratio=1.40 / pb_ratio=1.30 / aq=3:0.70
  25. Language                                 : English
  26. Default                                  : Yes
  27. Forced                                   : No
  28. Color range                              : Limited
  29. Matrix coefficients                      : BT.709

  30. Audio
  31. ID                                       : 2
  32. Format                                   : AC-3
  33. Format/Info                              : Audio Coding 3
  34. Commercial name                          : Dolby Digital
  35. Codec ID                                 : A_AC3
  36. Duration                                 : 1 h 14 min
  37. Bit rate mode                            : Constant
  38. Bit rate                                 : 640 kb/s
  39. Channel(s)                               : 6 channels
  40. Channel layout                           : L R C LFE Ls Rs
  41. Sampling rate                            : 48.0 kHz
  42. Frame rate                               : 31.250 FPS (1536 SPF)
  43. Compression mode                         : Lossy
  44. Stream size                              : 339 MiB (13%)
  45. Language                                 : English
  46. Service kind                             : Complete Main
  47. Default                                  : Yes
  48. Forced                                   : No

  49. Text #1
  50. ID                                       : 3
  51. Format                                   : PGS
  52. Muxing mode                              : zlib
  53. Codec ID                                 : S_HDMV/PGS
  54. Codec ID/Info                            : Picture based subtitle format used on BDs/HD-DVDs
  55. Duration                                 : 1 h 11 min
  56. Bit rate                                 : 29.4 kb/s
  57. Count of elements                        : 1628
  58. Stream size                              : 15.0 MiB (1%)
  59. Title                                    : German
  60. Language                                 : German
  61. Default                                  : No
  62. Forced                                   : No

  63. Text #2
  64. ID                                       : 4
  65. Format                                   : PGS
  66. Muxing mode                              : zlib
  67. Codec ID                                 : S_HDMV/PGS
  68. Codec ID/Info                            : Picture based subtitle format used on BDs/HD-DVDs
  69. Duration                                 : 43 min 41 s
  70. Bit rate                                 : 407 b/s
  71. Count of elements                        : 16
  72. Stream size                              : 130 KiB (0%)
  73. Title                                    : German (FORCED)
  74. Language                                 : German
  75. Default                                  : No
  76. Forced                                   : No

  77. Menu
  78. 00:00:00.000                             : en:Chapter 01
  79. 00:08:40.979                             : en:Chapter 02
  80. 00:13:59.088                             : en:Chapter 03
  81. 00:22:01.904                             : en:Chapter 04
  82. 00:30:30.662                             : en:Chapter 05
  83. 00:38:45.198                             : en:Chapter 06
  84. 00:47:38.898                             : en:Chapter 07
  85. 00:59:08.086                             : en:Chapter 08
  86. 01:05:32.178                             : en:Chapter 09
  87. 01:08:09.043                             : en:Chapter 10
  88. 01:11:42.006                             : en:Chapter 11
  89. 01:12:41.023                             : en:Chapter 12
复制代码




                                       
                                       

                                       
                                       
                                       




回复

使用道具 举报

懒得打字嘛,点击右侧快捷回复 【右侧内容,后台自定义】
您需要登录后才可以回帖 登录 | 立即加入

本版积分规则

Archiver|小黑屋| 蓝光电影网 |网站地图

Copyright © 2021 Comsenz Inc. Powered by 蓝光电影网

蓝光电影网

本站内容由用户自主分享和转载自互联网,转载目的在于传递更多信息,并不代表本网赞同其观点和对其真实性负责。

如有侵权、违反国家法律政策行为,请联系我们,我们会第一时间及时清除和处理!

举报反馈邮箱:[email protected]

快速回复 返回顶部 返回列表