找回密码

蓝光电影网

查看: 19|回复: 0

[科幻] 寄生异形 Sputnik.2020.RUSSIAN.1080p.BluRay.x264-HANDJOB 9.72GB

[复制链接]
蓝光币
426
发表于 2020-12-9 09:08:48 | 显示全部楼层 |阅读模式
[img][/img]

◎译  名 寄生异形/Satellite/Sputnik/人造卫星/卫星
◎片  名 Спутник
◎年  代 2020
◎产  地 俄罗斯
◎类  别 科幻 / 可骇
◎语  言 俄语
◎上映日期 2020-04-15(翠贝卡电影节) / 2020-04-23(俄罗斯)
◎IMDb评分  6.4/10 from 10453 users
◎IMDb链接  https://www.imdb.com/title/tt11905962/
◎豆瓣评分 5.9/10 from 4151 users
◎豆瓣链接 https://movie.douban.com/subject/34852765/
◎片  长 105分钟
◎导  演 艾戈尔·阿布拉门科 Egor Abramenko
◎编  剧 奥列格·马洛维奇克 Oleg Malovichko / 安德烈·佐洛塔廖夫 Andrey Zolotarev
◎主  演 奥莎娜·阿金什那 Oksana Akinshina
       费奥多尔·邦达尔丘克 Fyodor Bondarchuk
       彼得·费奥多罗夫 Pyotr Fyodorov
       安东·瓦西利耶夫 Anton Vasilev
       阿列克谢·杰米多夫 Aleksey Demidov
       维塔丽雅·科尔尼扬科 Vitaliya Kornienko
◎标  签 科幻 | 俄罗斯 | 惊悚 | 外星人 | 可骇 | 2020 | 电影 | 悬疑
◎简  介


  年轻女医生Tatiana Yurievna(奥莎娜·阿金什那 Oksana Akinshina 饰)由于利用具争议的技术而差点被撤消医师执照。但她被军方招募来到一个机密的研讨机构,辅佐研讨一个特此外案例,太空人Konstantin Sergeyevich(彼得·费奥多罗 夫 Pyotr Fyodorov 饰)。这位太空人历经奥秘的太空意外后幸存返回地球,体内却多了外星生物,而且这个奥秘生物只在深夜时现身。军方想具有这个外星生物停止邪恶的计划,但女医生只想阻止外星生物杀戮太空人。
◎获奖情况
  第4届平遥国际电影展 ?(2020)
  首映单元最受接待影片(提名) 艾戈尔·阿布拉门科
  1. Video
  2. ID                                       : 1
  3. Format                                   : AVC
  4. Format/Info                              : Advanced Video Codec
  5. Format profile                           : [email protected]
  6. Format settings                          : CABAC / 5 Ref Frames
  7. Format settings, CABAC                   : Yes
  8. Format settings, Reference frames        : 5 frames
  9. Codec ID                                 : V_MPEG4/ISO/AVC
  10. Duration                                 : 1 h 53 min
  11. Bit rate                                 : 11.6 Mb/s
  12. Width                                    : 1 920 pixels
  13. Height                                   : 804 pixels
  14. Display aspect ratio                     : 2.40:1
  15. Frame rate mode                          : Constant
  16. Frame rate                               : 24.000 FPS
  17. Color space                              : YUV
  18. Chroma subsampling                       : 4:2:0
  19. Bit depth                                : 8 bits
  20. Scan type                                : Progressive
  21. Bits/(Pixel*Frame)                       : 0.312
  22. Stream size                              : 9.20 GiB (95%)
  23. Writing library                          : x264 core 157 r2935 545de2f
  24. Encoding settings                        : cabac=1 / ref=5 / deblock=1:-3:-3 / analyse=0x3:0x133 / me=umh / subme=11 / psy=1 / psy_rd=1.00:0.00 / mixed_ref=1 / me_range=32 / chroma_me=1 / trellis=2 / 8x8dct=1 / cqm=0 / deadzone=21,11 / fast_pskip=0 / chroma_qp_offset=-2 / threads=18 / lookahead_threads=4 / sliced_threads=0 / nr=0 / decimate=0 / interlaced=0 / bluray_compat=0 / constrained_intra=0 / bframes=16 / b_pyramid=2 / b_adapt=2 / b_bias=0 / direct=3 / weightb=1 / open_gop=0 / weightp=2 / keyint=240 / keyint_min=24 / scenecut=40 / intra_refresh=0 / rc_lookahead=60 / rc=crf / mbtree=0 / crf=19.0 / qcomp=0.65 / qpmin=0 / qpmax=69 / qpstep=4 / vbv_maxrate=62500 / vbv_bufsize=78125 / crf_max=0.0 / nal_hrd=none / filler=0 / ip_ratio=1.40 / pb_ratio=1.30 / aq=3:0.90
  25. Default                                  : Yes
  26. Forced                                   : No
  27. Color range                              : Limited
  28. Color primaries                          : BT.709
  29. Transfer characteristics                 : BT.709
  30. Matrix coefficients                      : BT.709
  31. Audio
  32. ID                                       : 2
  33. Format                                   : AC-3
  34. Format/Info                              : Audio Coding 3
  35. Commercial name                          : Dolby Digital
  36. Codec ID                                 : A_AC3
  37. Duration                                 : 1 h 53 min
  38. Bit rate mode                            : Constant
  39. Bit rate                                 : 640 kb/s
  40. Channel(s)                               : 6 channels
  41. Channel layout                           : L R C LFE Ls Rs
  42. Sampling rate                            : 48.0 kHz
  43. Frame rate                               : 31.250 FPS (1536 SPF)
  44. Compression mode                         : Lossy
  45. Stream size                              : 521 MiB (5%)
  46. Language                                 : Russian
  47. Service kind                             : Complete Main
  48. Default                                  : Yes
  49. Forced                                   : No
  50. Text #1
  51. ID                                       : 3
  52. Format                                   : UTF-8
  53. Codec ID                                 : S_TEXT/UTF8
  54. Codec ID/Info                            : UTF-8 Plain Text
  55. Duration                                 : 1 h 47 min
  56. Bit rate                                 : 39 b/s
  57. Count of elements                        : 971
  58. Stream size                              : 31.1 KiB (0%)
  59. Language                                 : English
  60. Default                                  : Yes
  61. Forced                                   : No
  62. Text #2
  63. ID                                       : 4
  64. Format                                   : PGS
  65. Muxing mode                              : zlib
  66. Codec ID                                 : S_HDMV/PGS
  67. Codec ID/Info                            : Picture based subtitle format used on BDs/HD-DVDs
  68. Duration                                 : 1 h 42 min
  69. Bit rate                                 : 28.8 kb/s
  70. Count of elements                        : 1824
  71. Stream size                              : 21.1 MiB (0%)
  72. Language                                 : German
  73. Default                                  : No
  74. Forced                                   : No
  75. Menu
  76. 00:00:00.000                             : :Chapter 1
  77. 00:06:16.125                             : :Chapter 2
  78. 00:13:36.250                             : :Chapter 3
  79. 00:19:10.167                             : :Chapter 4
  80. 00:26:32.542                             : :Chapter 5
  81. 00:32:40.625                             : :Chapter 6
  82. 00:40:52.833                             : :Chapter 7
  83. 00:49:06.792                             : :Chapter 8
  84. 00:57:53.917                             : :Chapter 9
  85. 01:05:32.417                             : :Chapter 10
  86. 01:13:20.375                             : :Chapter 11
  87. 01:20:56.417                             : :Chapter 12
  88. 01:27:17.583                             : :Chapter 13
  89. 01:33:48.292                             : :Chapter 14
  90. 01:40:12.458                             : :Chapter 15
  91. 01:44:33.292                             : :Chapter 16
复制代码



                                       
                                       

                                       
                                       
                                       




回复

使用道具 举报

懒得打字嘛,点击右侧快捷回复 【右侧内容,后台自定义】
您需要登录后才可以回帖 登录 | 立即加入

本版积分规则

Archiver|小黑屋| 蓝光电影网 |网站地图

Copyright © 2021 Comsenz Inc. Powered by 蓝光电影网

蓝光电影网

本站内容由用户自主分享和转载自互联网,转载目的在于传递更多信息,并不代表本网赞同其观点和对其真实性负责。

如有侵权、违反国家法律政策行为,请联系我们,我们会第一时间及时清除和处理!

举报反馈邮箱:[email protected]

快速回复 返回顶部 返回列表