找回密码

蓝光电影网

查看: 17|回复: 0

[恐怖] 来玩 Come.Play.2020.1080p.BluRay.x264-BLOW 10.70GB

[复制链接]
蓝光币
426
发表于 2021-1-28 09:04:14 | 显示全部楼层 |阅读模式


◎译  名 来玩/Larry/怪奇默友(港)/拉里/鬼游戏(台)
◎片  名 Come Play
◎年  代 2020
◎产  地 美国
◎类  别 可骇 / 家庭 / 奇异
◎语  言 英语
◎上映日期 2020-10-30(美国)
◎IMDb评分  5.7/10 from 6455 users
◎IMDb链接  https://www.imdb.com/title/tt8004664/
◎豆瓣评分 6.1/10 from 2708 users
◎豆瓣链接 https://movie.douban.com/subject/30465104/
◎片  长 97分钟
◎导  演 雅各布·蔡斯 Jacob Chase
◎编  剧 雅各布·蔡斯 Jacob Chase
◎主  演 艾奇·罗伯逊 Azhy Robertson
       吉莉安·雅各布斯 Gillian Jacobs
       小约翰·加拉赫 John Gallagher Jr.
       温斯洛·费格雷 Winslow Fegley
       杰登·马林 Jayden Marine
       加文·麦基弗·赖特 Gavin MacIver-Wright
       蕾切尔·威尔森 Rachel Wilson
       阿拉娜·阿什利·马奎斯 Alana-Ashley Marques
       达尔默·阿泽德 Dalmar Abuzeid
       伊斯汗·莫里斯 Ishan Morris
       埃博妮·布斯 Eboni Booth
       安娜·阿劳约 Ana Araujo
       凯特·芬顿 Kate Fenton
◎标  签 可骇 | 惊悚 | 美国 | 怪物 | 2020 | 电影 | 家庭 | 短片改编
◎简  介


  孤独的小男孩Olive(艾奇·罗伯逊 饰),他感觉自己处处异于其他人。他很想要交朋友,因而他花很多时候在手机战争版上。当一个奥秘的生物想要透过Oliver的手机战争板来进入我们的天下,Oliver的怙恃(吉莉安·雅各布斯 Gillia nJacobs、小约翰·加拉赫 John Gallagher Jr. 饰)必须自告奋勇,将儿子从奥秘生物的手中救出。
  1. Video
  2. ID                                       : 1
  3. Format                                   : AVC
  4. Format/Info                              : Advanced Video Codec
  5. Format profile                           : [email protected]
  6. Format settings                          : CABAC / 5 Ref Frames
  7. Format settings, CABAC                   : Yes
  8. Format settings, Reference frames        : 5 frames
  9. Codec ID                                 : V_MPEG4/ISO/AVC
  10. Duration                                 : 1 h 36 min
  11. Bit rate                                 : 12.6 Mb/s
  12. Width                                    : 1 920 pixels
  13. Height                                   : 804 pixels
  14. Display aspect ratio                     : 2.40:1
  15. Frame rate mode                          : Constant
  16. Frame rate                               : 23.976 (24000/1001/189150) FPS
  17. Color space                              : YUV
  18. Chroma subsampling                       : 4:2:0
  19. Bit depth                                : 8 bits
  20. Scan type                                : Progressive
  21. Bits/(Pixel*Frame)                       : 0.341
  22. Stream size                              : 8.50 GiB (79%)
  23. Writing library                          : x264 core 161 r3039 544c61f
  24. Encoding settings                        : cabac=1 / ref=5 / deblock=1:-3:-3 / analyse=0x3:0x133 / me=umh / subme=9 / psy=1 / psy_rd=1.00:0.00 / mixed_ref=1 / me_range=16 / chroma_me=1 / trellis=2 / 8x8dct=1 / cqm=0 / deadzone=21,11 / fast_pskip=0 / chroma_qp_offset=-2 / threads=24 / lookahead_threads=2 / sliced_threads=0 / nr=0 / decimate=0 / interlaced=0 / bluray_compat=0 / constrained_intra=0 / bframes=3 / b_pyramid=2 / b_adapt=2 / b_bias=0 / direct=3 / weightb=1 / open_gop=0 / weightp=2 / keyint=250 / keyint_min=23 / scenecut=40 / intra_refresh=0 / rc=crf / mbtree=0 / crf=17.0 / qcomp=0.60 / qpmin=0 / qpmax=69 / qpstep=4 / ip_ratio=1.40 / pb_ratio=1.30 / aq=3:0.70
  25. Language                                 : English
  26. Default                                  : Yes
  27. Forced                                   : No
  28. Color range                              : Limited
  29. Matrix coefficients                      : BT.709
  30. Audio
  31. ID                                       : 2
  32. Format                                   : DTS XLL
  33. Format/Info                              : Digital Theater Systems
  34. Commercial name                          : DTS-HD Master Audio
  35. Codec ID                                 : A_DTS
  36. Duration                                 : 1 h 36 min
  37. Bit rate mode                            : Variable
  38. Bit rate                                 : 3 241 kb/s
  39. Channel(s)                               : 6 channels
  40. Channel layout                           : C L R Ls Rs LFE
  41. Sampling rate                            : 48.0 kHz
  42. Frame rate                               : 93.750 FPS (512 SPF)
  43. Bit depth                                : 24 bits
  44. Compression mode                         : Lossless
  45. Stream size                              : 2.18 GiB (20%)
  46. Language                                 : English
  47. Default                                  : Yes
  48. Forced                                   : No
  49. Text #1
  50. ID                                       : 3
  51. Format                                   : PGS
  52. Muxing mode                              : zlib
  53. Codec ID                                 : S_HDMV/PGS
  54. Codec ID/Info                            : Picture based subtitle format used on BDs/HD-DVDs
  55. Duration                                 : 1 h 31 min
  56. Bit rate                                 : 26.7 kb/s
  57. Count of elements                        : 1956
  58. Stream size                              : 17.5 MiB (0%)
  59. Title                                    : English (SDH)
  60. Language                                 : English
  61. Default                                  : No
  62. Forced                                   : No
  63. Text #2
  64. ID                                       : 4
  65. Format                                   : PGS
  66. Muxing mode                              : zlib
  67. Codec ID                                 : S_HDMV/PGS
  68. Codec ID/Info                            : Picture based subtitle format used on BDs/HD-DVDs
  69. Duration                                 : 1 h 35 min
  70. Bit rate                                 : 18.7 kb/s
  71. Count of elements                        : 1520
  72. Stream size                              : 12.8 MiB (0%)
  73. Title                                    : French
  74. Language                                 : French
  75. Default                                  : No
  76. Forced                                   : No
  77. Text #3
  78. ID                                       : 5
  79. Format                                   : PGS
  80. Muxing mode                              : zlib
  81. Codec ID                                 : S_HDMV/PGS
  82. Codec ID/Info                            : Picture based subtitle format used on BDs/HD-DVDs
  83. Duration                                 : 1 h 35 min
  84. Bit rate                                 : 18.8 kb/s
  85. Count of elements                        : 1522
  86. Stream size                              : 12.9 MiB (0%)
  87. Title                                    : Spanish
  88. Language                                 : Spanish
  89. Default                                  : No
  90. Forced                                   : No
  91. Text #4
  92. ID                                       : 6
  93. Format                                   : UTF-8
  94. Codec ID                                 : S_TEXT/UTF8
  95. Codec ID/Info                            : UTF-8 Plain Text
  96. Duration                                 : 1 h 31 min
  97. Bit rate                                 : 32 b/s
  98. Count of elements                        : 773
  99. Stream size                              : 21.5 KiB (0%)
  100. Title                                    : English (SRT)
  101. Language                                 : English
  102. Default                                  : No
  103. Forced                                   : No
  104. Text #5
  105. ID                                       : 7
  106. Format                                   : UTF-8
  107. Codec ID                                 : S_TEXT/UTF8
  108. Codec ID/Info                            : UTF-8 Plain Text
  109. Duration                                 : 1 h 31 min
  110. Bit rate                                 : 38 b/s
  111. Count of elements                        : 978
  112. Stream size                              : 26.1 KiB (0%)
  113. Title                                    : English (SDH SRT)
  114. Language                                 : English
  115. Default                                  : No
  116. Forced                                   : No
  117. Menu
  118. 00:00:00.000                             : en:Chapter 01
  119. 00:03:50.856                             : en:Chapter 02
  120. 00:09:51.007                             : en:Chapter 03
  121. 00:15:32.223                             : en:Chapter 04
  122. 00:18:03.165                             : en:Chapter 05
  123. 00:23:24.403                             : en:Chapter 06
  124. 00:28:58.028                             : en:Chapter 07
  125. 00:37:23.241                             : en:Chapter 08
  126. 00:43:15.843                             : en:Chapter 09
  127. 00:48:22.942                             : en:Chapter 10
  128. 00:50:11.217                             : en:Chapter 11
  129. 00:56:25.507                             : en:Chapter 12
  130. 00:58:37.764                             : en:Chapter 13
  131. 01:02:21.029                             : en:Chapter 14
  132. 01:07:30.171                             : en:Chapter 15
  133. 01:12:48.739                             : en:Chapter 16
  134. 01:20:33.495                             : en:Chapter 17
  135. 01:27:21.445                             : en:Chapter 18
  136. 01:29:42.419                             : en:Chapter 19
  137. 01:32:22.203                             : en:Chapter 20
复制代码



                                       
                                       

                                       
                                       
                                       




回复

使用道具 举报

懒得打字嘛,点击右侧快捷回复 【右侧内容,后台自定义】
您需要登录后才可以回帖 登录 | 立即加入

本版积分规则

Archiver|小黑屋| 蓝光电影网 |网站地图

Copyright © 2021 Comsenz Inc. Powered by 蓝光电影网

蓝光电影网

本站内容由用户自主分享和转载自互联网,转载目的在于传递更多信息,并不代表本网赞同其观点和对其真实性负责。

如有侵权、违反国家法律政策行为,请联系我们,我们会第一时间及时清除和处理!

举报反馈邮箱:[email protected]

快速回复 返回顶部 返回列表