找回密码

蓝光电影网

查看: 33|回复: 0

[爱情] 阳炎座 Kagero-za.1981.1080p.BluRay.x264-USURY 14.22GB

[复制链接]
蓝光币
386
发表于 2020-10-13 10:08:08 | 显示全部楼层 |阅读模式


◎译  名 阳炎座/Heat Shimmer Theater
◎片  名 陽炎座
◎年  代 1981
◎产  地 日本
◎类  别 恋爱 / 惊悚 / 奇异
◎语  言 日语
◎上映日期 1981-08-21
◎IMDb评分  6.9/10 from 522 users
◎IMDb链接  https://www.imdb.com/title/tt0082596/
◎豆瓣评分 8.0/10 from 1269 users
◎豆瓣链接 https://movie.douban.com/subject/1401328/
◎片  长 139 分钟
◎导  演 铃木清顺 Seijun Suzuki
◎编  剧 田中阳造 Y?z? Tanaka / 泉镜花 Kyoka Izumi
◎主  演 松田优作 Yusaku Matsuda
       大楠道代 Michiyo Ookusu
       中村贺津雄 Katsuo Nakamura
       大友柳太朗 Ryutaro Otomo
       佐藤B作 Bsaku Satoh
       楠田枝里子 Eriko Kusuda
       加贺麻理子 Mariko Kaga
       东惠美子 Emiko Azuma
       原田芳雄 Yoshio Harada
       佐野浅夫 Asao Sano
       磨赤儿 Akaji Maro
◎标  签 日本 | 铃木清顺 | 日本电影 | 情色 | 鈴木清順 | 1980s | 1981 | 松田优作
◎简  介


  铃木清顺大正(浪漫)三部曲:《流浪者之歌》、《阳炎座》和《夢二》中的第二部作品。
◎获奖情况
  第6届报知映画赏 ?(1981)
  最好男配角 中村贺津雄
  1. Video
  2. ID                                       : 1
  3. Format                                   : AVC
  4. Format/Info                              : Advanced Video Codec
  5. Format profile                           : [email protected]
  6. Format settings                          : CABAC / 4 Ref Frames
  7. Format settings, CABAC                   : Yes
  8. Format settings, Reference frames        : 4 frames
  9. Codec ID                                 : V_MPEG4/ISO/AVC
  10. Duration                                 : 2 h 19 min
  11. Bit rate                                 : 13.9 Mb/s
  12. Width                                    : 1 440 pixels
  13. Height                                   : 1 080 pixels
  14. Display aspect ratio                     : 4:3
  15. Frame rate mode                          : Constant
  16. Frame rate                               : 23.976 (24000/1001/189150) FPS
  17. Color space                              : YUV
  18. Chroma subsampling                       : 4:2:0
  19. Bit depth                                : 8 bits
  20. Scan type                                : Progressive
  21. Bits/(Pixel*Frame)                       : 0.373
  22. Stream size                              : 13.6 GiB (95%)
  23. Writing library                          : x264 core 152 r2851 ba24899
  24. Encoding settings                        : cabac=1 / ref=4 / deblock=1:-3:-3 / analyse=0x3:0x133 / me=umh / subme=9 / psy=1 / psy_rd=1.00:0.00 / mixed_ref=1 / me_range=16 / chroma_me=1 / trellis=2 / 8x8dct=1 / cqm=0 / deadzone=21,11 / fast_pskip=0 / chroma_qp_offset=-2 / threads=30 / lookahead_threads=2 / sliced_threads=0 / nr=0 / decimate=1 / interlaced=0 / bluray_compat=0 / constrained_intra=0 / bframes=3 / b_pyramid=2 / b_adapt=1 / b_bias=0 / direct=3 / weightb=1 / open_gop=0 / weightp=2 / keyint=250 / keyint_min=23 / scenecut=40 / intra_refresh=0 / rc_lookahead=50 / rc=2pass / mbtree=1 / bitrate=13891 / ratetol=1.0 / qcomp=0.60 / qpmin=0 / qpmax=69 / qpstep=4 / cplxblur=20.0 / qblur=0.5 / ip_ratio=1.40 / aq=1:1.00
  25. Language                                 : English
  26. Default                                  : Yes
  27. Forced                                   : No

  28. Audio
  29. ID                                       : 2
  30. Format                                   : FLAC
  31. Format/Info                              : Free Lossless Audio Codec
  32. Codec ID                                 : A_FLAC
  33. Duration                                 : 2 h 19 min
  34. Bit rate mode                            : Variable
  35. Bit rate                                 : 657 kb/s
  36. Channel(s)                               : 2 channels
  37. Channel layout                           : L R
  38. Sampling rate                            : 48.0 kHz
  39. Frame rate                               : 11.719 FPS (4096 SPF)
  40. Bit depth                                : 24 bits
  41. Compression mode                         : Lossless
  42. Stream size                              : 657 MiB (5%)
  43. Writing library                          : libFLAC 1.2.1 (UTC 2007-09-17)
  44. Language                                 : Japanese
  45. Default                                  : Yes
  46. Forced                                   : No

  47. Text
  48. ID                                       : 3
  49. Format                                   : UTF-8
  50. Codec ID                                 : S_TEXT/UTF8
  51. Codec ID/Info                            : UTF-8 Plain Text
  52. Duration                                 : 2 h 19 min
  53. Bit rate                                 : 28 b/s
  54. Count of elements                        : 1040
  55. Stream size                              : 29.0 KiB (0%)
  56. Language                                 : English
  57. Default                                  : Yes
  58. Forced                                   : Yes

  59. Menu
  60. 00:00:00.000                             : en:00:00:00.000
  61. 00:10:19.327                             : en:00:10:19.327
  62. 00:20:57.381                             : en:00:20:57.381
  63. 00:33:18.747                             : en:00:33:18.747
  64. 00:45:39.570                             : en:00:45:39.570
  65. 00:59:48.835                             : en:00:59:48.835
  66. 01:11:28.618                             : en:01:11:28.618
  67. 01:19:26.553                             : en:01:19:26.553
  68. 01:33:28.228                             : en:01:33:28.228
  69. 01:41:16.696                             : en:01:41:16.696
  70. 01:50:44.221                             : en:01:50:44.221
  71. 02:05:23.266                             : en:02:05:23.266
复制代码




                                       
                                       

                                       
                                       
                                       




回复

使用道具 举报

懒得打字嘛,点击右侧快捷回复 【右侧内容,后台自定义】
您需要登录后才可以回帖 登录 | 立即加入

本版积分规则

Archiver|小黑屋| 蓝光电影网 |网站地图

Copyright © 2021 Comsenz Inc. Powered by 蓝光电影网

蓝光电影网

本站内容由用户自主分享和转载自互联网,转载目的在于传递更多信息,并不代表本网赞同其观点和对其真实性负责。

如有侵权、违反国家法律政策行为,请联系我们,我们会第一时间及时清除和处理!

举报反馈邮箱:[email protected]

快速回复 返回顶部 返回列表