找回密码

蓝光电影网

查看: 35|回复: 0

[动作] 圣徒/七海游侠 The.Saint.1997.1080p.BluRay.x264.DD5.1-NOGRP 8.22GB

[复制链接]
蓝光币
386
发表于 2021-5-30 09:10:15 | 显示全部楼层 |阅读模式


◎译  名 圣徒/七海游侠/侠圣/神鬼至尊
◎片  名 The Saint
◎年  代 1997
◎产  地 美国
◎类  别 行动 / 恋爱 / 科幻 / 惊悚
◎语  言 英语,俄语
◎上映日期 1997-04-04(美国)
◎豆瓣评分 7.1/10 from 2268 users
◎豆瓣链接 https://movie.douban.com/subject/1295708/
◎片  长 116分钟
◎导  演 菲利普·诺伊斯 Phillip Noyce
◎编  剧 乔纳森·汉斯雷 Jonathan Hensleigh / 韦斯利·斯崔克 Wesley Strick
◎主  演 方·基默 Val Kilmer
       伊丽莎白·苏 Elisabeth Shue
       拉德·舍博德兹加 Rade Serbedzija
       瓦列里·尼古拉耶夫 Valeriy Nikolaev
       亨利·古德曼 Henry Goodman
       艾伦·阿姆斯特朗 Alun Armstrong
       迈克尔·伯恩 Michael Byrne
       叶夫盖尼·拉扎列夫 Evgeniy Lazarev
       伊琳娜·阿贝克斯莫娃 Irina Apeksimova
       列夫·普雷古诺夫 Lev Prygunov
       夏洛特康威尔 Charlotte Cornwell
       艾米莉·莫迪默 Emily Mortimer
       Lucija Serbedzija
       维利贝·托皮奇 Velibor Topic
       汤米·弗拉纳根 Tommy Flanagan
       Egor Pazenko
       Adam Smith
       彼得·吉尼斯 Peter Guinness
       威廉·霍普 William Hope
◎标  签 行动 | 美国 | 犯罪 | 侠盗 | 恋爱 | 美国电影 | 1997 | ValKilmer
◎简  介


  孤儿西蒙(方·基默 Val Kilmer 饰)幼时生活在教会孤儿院中,那边留给他的,除了施洗者约翰的新名字与严苛的赏罚之外,还有撬门开锁的才能。多年今后,西蒙已经是著名的大盗,他计划张罗5000万以后脱胎换骨,享用人生。西承受命远赴莫斯科,窃取了政党魁首兼石油寡头伊万(拉德·舍博德兹加 Rade Serbedzija 饰)的芯片,自此与伊万父子“结缘”。西蒙为高额报答再度接管使命,而此次的店主居然是伊万父子,他们命西蒙窃取足以处理能源危机的核技术。西蒙乔装接近把握核技术的艾玛博士(伊丽莎白·苏 Elisabeth Shue 饰),与博士暗生情愫的同时,对付着伊万父子的辣手使命……
  1. Video
  2. ID                                       : 1
  3. Format                                   : AVC
  4. Format/Info                              : Advanced Video Codec
  5. Format profile                           : [email protected]
  6. Format settings                          : CABAC / 5 Ref Frames
  7. Format settings, CABAC                   : Yes
  8. Format settings, Reference frames        : 5 frames
  9. Codec ID                                 : V_MPEG4/ISO/AVC
  10. Duration                                 : 1 h 56 min
  11. Bit rate                                 : 9 494 kb/s
  12. Width                                    : 1 920 pixels
  13. Height                                   : 824 pixels
  14. Display aspect ratio                     : 2.35:1
  15. Frame rate mode                          : Constant
  16. Frame rate                               : 23.976 (24000/1001/189150) FPS
  17. Color space                              : YUV
  18. Chroma subsampling                       : 4:2:0
  19. Bit depth                                : 8 bits
  20. Scan type                                : Progressive
  21. Bits/(Pixel*Frame)                       : 0.250
  22. Stream size                              : 7.70 GiB (94%)
  23. Writing library                          : x264 core 157
  24. Encoding settings                        : cabac=1 / ref=5 / deblock=1:-3:-3 / analyse=0x3:0x113 / me=umh / subme=8 / psy=1 / psy_rd=1.00:0.00 / mixed_ref=1 / me_range=24 / chroma_me=1 / trellis=1 / 8x8dct=1 / cqm=0 / deadzone=21,11 / fast_pskip=1 / chroma_qp_offset=-2 / threads=12 / lookahead_threads=2 / sliced_threads=0 / nr=0 / decimate=1 / interlaced=0 / bluray_compat=0 / constrained_intra=0 / bframes=3 / b_pyramid=2 / b_adapt=1 / b_bias=0 / direct=3 / weightb=1 / open_gop=0 / weightp=2 / keyint=250 / keyint_min=23 / scenecut=40 / intra_refresh=0 / rc_lookahead=50 / rc=2pass / mbtree=1 / bitrate=9494 / ratetol=1.0 / qcomp=0.60 / qpmin=0 / qpmax=69 / qpstep=4 / cplxblur=20.0 / qblur=0.5 / ip_ratio=1.40 / aq=1:1.00
  25. Language                                 : English
  26. Default                                  : Yes
  27. Forced                                   : No
  28. Audio
  29. ID                                       : 2
  30. Format                                   : AC-3
  31. Format/Info                              : Audio Coding 3
  32. Commercial name                          : Dolby Digital
  33. Codec ID                                 : A_AC3
  34. Duration                                 : 1 h 56 min
  35. Bit rate mode                            : Constant
  36. Bit rate                                 : 640 kb/s
  37. Channel(s)                               : 6 channels
  38. Channel layout                           : L R C LFE Ls Rs
  39. Sampling rate                            : 48.0 kHz
  40. Frame rate                               : 31.250 FPS (1536 SPF)
  41. Compression mode                         : Lossy
  42. Stream size                              : 532 MiB (6%)
  43. Title                                    : English
  44. Language                                 : English
  45. Service kind                             : Complete Main
  46. Default                                  : No
  47. Forced                                   : No
  48. Text #1
  49. ID                                       : 3
  50. Format                                   : UTF-8
  51. Codec ID                                 : S_TEXT/UTF8
  52. Codec ID/Info                            : UTF-8 Plain Text
  53. Duration                                 : 1 h 50 min
  54. Bit rate                                 : 43 b/s
  55. Count of elements                        : 961
  56. Stream size                              : 35.2 KiB (0%)
  57. Title                                    : English
  58. Language                                 : English
  59. Default                                  : Yes
  60. Forced                                   : No
  61. Text #2
  62. ID                                       : 4
  63. Format                                   : UTF-8
  64. Codec ID                                 : S_TEXT/UTF8
  65. Codec ID/Info                            : UTF-8 Plain Text
  66. Duration                                 : 1 h 55 min
  67. Bit rate                                 : 47 b/s
  68. Count of elements                        : 1046
  69. Stream size                              : 39.9 KiB (0%)
  70. Title                                    : French
  71. Language                                 : French
  72. Default                                  : No
  73. Forced                                   : No
  74. Menu
  75. 00:00:00.000                             : :(01)00:00:00:000
  76. 00:07:23.526                             : :(02)00:07:23:526
  77. 00:11:53.129                             : :(03)00:11:53:129
  78. 00:16:27.528                             : :(04)00:16:27:528
  79. 00:21:14.273                             : :(05)00:21:14:273
  80. 00:27:32.067                             : :(06)00:27:32:067
  81. 00:34:08.921                             : :(07)00:34:08:921
  82. 00:39:29.492                             : :(08)00:39:29:492
  83. 00:44:15.736                             : :(09)00:44:15:736
  84. 00:49:20.499                             : :(10)00:49:20:499
  85. 00:55:32.954                             : :(11)00:55:32:954
  86. 01:00:06.978                             : :(12)01:00:06:978
  87. 01:05:56.243                             : :(13)01:05:56:243
  88. 01:11:29.034                             : :(14)01:11:29:034
  89. 01:17:33.982                             : :(15)01:17:33:982
  90. 01:21:49.905                             : :(16)01:21:49:905
  91. 01:25:53.690                             : :(17)01:25:53:690
  92. 01:31:43.289                             : :(18)01:31:43:289
  93. 01:38:15.055                             : :(19)01:38:15:055
  94. 01:42:03.867                             : :(20)01:42:03:867
  95. 01:50:45.055                             : :(21)01:50:45:055
复制代码







                                       
                                       

                                       
                                       
                                       




回复

使用道具 举报

懒得打字嘛,点击右侧快捷回复 【右侧内容,后台自定义】
您需要登录后才可以回帖 登录 | 立即加入

本版积分规则

Archiver|小黑屋| 蓝光电影网 |网站地图

Copyright © 2021 Comsenz Inc. Powered by 蓝光电影网

蓝光电影网

本站内容由用户自主分享和转载自互联网,转载目的在于传递更多信息,并不代表本网赞同其观点和对其真实性负责。

如有侵权、违反国家法律政策行为,请联系我们,我们会第一时间及时清除和处理!

举报反馈邮箱:[email protected]

快速回复 返回顶部 返回列表