找回密码

蓝光电影网

查看: 14|回复: 0

[惊悚] 梅格雷与圣·菲亚克公爵夫人 Maigret.and.the.St.Fiacre.Case.1959.720p.BluRay.x264-USURY 6.64GB

[复制链接]
蓝光币
382
发表于 2021-3-26 08:55:53 | 显示全部楼层 |阅读模式


◎译  名 梅格雷与圣·菲亚克公爵夫人/Maigret and the St. Fiacre Case
◎片  名 Maigret et l'affaire Saint-Fiacre
◎年  代 1959
◎产  地 法国,意大利
◎类  别 惊悚
◎语  言 法语
◎上映日期 1959
◎IMDb评分  7.1/10 from 1148 users
◎IMDb链接  https://www.imdb.com/title/tt0053033/
◎豆瓣评分 /10 from 0 users
◎豆瓣链接 https://movie.douban.com/subject/5083571/
◎片  长 101 分钟
◎导  演 让·德拉努瓦 Jean Delannoy
◎编  剧 乔治·西默农 Georges Simenon / 鲁道夫-莫里斯·阿劳德 Rodolphe-Maurice Arlaud / 米歇尔·奥迪亚 Michel Audiard / 让·德拉努瓦 Jean Delannoy
◎主  演 让·迦本 Jean Gabin
       米歇尔·奥克莱尔 Michel Auclair
       瓦伦丁·特西尔 Valentine Tessier
       雅克·马兰 Jacques Marin
       米舍利娜·卢乔尼 Micheline Luccioni
       Laure Paillette
       雅克·莫雷尔 Jacques Morel
       马塞尔·佩雷斯 Marcel Pérès
       Serge Rousseau
       安德丽·坦茜 Andrée Tainsy
       Hélène Tossy
       雅克·黑林 Jacques Hilling
       Camille Guérini
       Bruno Balp
       Henri Coutet
       Christian Brocard
       保罗·弗朗克尔 Paul Frankeur
       加布丽埃勒·丰坦 Gabrielle Fontan
       René Hell
       Jean-Pierre Granval
       罗伯特·赫希 Robert Hirsch
       米歇尔·维托尔德 Michel Vitold
◎标  签 被轻忽的电影 | 法國 | 不感爱好 | —黑白两道— | —有得看— | R让·德拉努瓦 | P-SanSebastianA入围主比赛 | 50
◎简  介


  暂无相关剧情先容
  1. Video
  2. ID                                       : 1
  3. Format                                   : AVC
  4. Format/Info                              : Advanced Video Codec
  5. Format profile                           : [email protected]
  6. Format settings                          : CABAC / 9 Ref Frames
  7. Format settings, CABAC                   : Yes
  8. Format settings, Reference frames        : 9 frames
  9. Codec ID                                 : V_MPEG4/ISO/AVC
  10. Duration                                 : 1 h 41 min
  11. Bit rate                                 : 9 038 kb/s
  12. Width                                    : 1 200 pixels
  13. Height                                   : 720 pixels
  14. Display aspect ratio                     : 5:3
  15. Frame rate mode                          : Constant
  16. Frame rate                               : 23.976 (24000/1001/189150) FPS
  17. Color space                              : YUV
  18. Chroma subsampling                       : 4:2:0
  19. Bit depth                                : 8 bits
  20. Scan type                                : Progressive
  21. Bits/(Pixel*Frame)                       : 0.436
  22. Stream size                              : 6.38 GiB (96%)
  23. Writing library                          : x264 core 161 r3048 b86ae3c
  24. Encoding settings                        : cabac=1 / ref=9 / deblock=1:-3:-3 / analyse=0x3:0x133 / me=umh / subme=10 / psy=1 / psy_rd=1.00:0.15 / mixed_ref=1 / me_range=24 / chroma_me=1 / trellis=2 / 8x8dct=1 / cqm=0 / deadzone=21,11 / fast_pskip=1 / chroma_qp_offset=-3 / threads=18 / lookahead_threads=3 / sliced_threads=0 / nr=0 / decimate=1 / interlaced=0 / bluray_compat=0 / constrained_intra=0 / bframes=8 / b_pyramid=2 / b_adapt=2 / b_bias=0 / direct=3 / weightb=1 / open_gop=0 / weightp=2 / keyint=250 / keyint_min=23 / scenecut=40 / intra_refresh=0 / rc_lookahead=60 / rc=crf / mbtree=1 / crf=17.0 / qcomp=0.60 / qpmin=0 / qpmax=69 / qpstep=4 / ip_ratio=1.40 / aq=3:0.50
  25. Language                                 : English
  26. Default                                  : Yes
  27. Forced                                   : No

  28. Audio
  29. ID                                       : 2
  30. Format                                   : FLAC
  31. Format/Info                              : Free Lossless Audio Codec
  32. Codec ID                                 : A_FLAC
  33. Duration                                 : 1 h 41 min
  34. Bit rate mode                            : Variable
  35. Bit rate                                 : 315 kb/s
  36. Channel(s)                               : 2 channels
  37. Channel layout                           : L R
  38. Sampling rate                            : 48.0 kHz
  39. Frame rate                               : 11.719 FPS (4096 SPF)
  40. Bit depth                                : 16 bits
  41. Compression mode                         : Lossless
  42. Stream size                              : 227 MiB (3%)
  43. Writing library                          : libFLAC 1.2.1 (UTC 2007-09-17)
  44. Language                                 : French
  45. Default                                  : Yes
  46. Forced                                   : No

  47. Text #1
  48. ID                                       : 3
  49. Format                                   : UTF-8
  50. Codec ID                                 : S_TEXT/UTF8
  51. Codec ID/Info                            : UTF-8 Plain Text
  52. Duration                                 : 1 h 40 min
  53. Bit rate                                 : 58 b/s
  54. Count of elements                        : 1232
  55. Stream size                              : 42.9 KiB (0%)
  56. Title                                    : English
  57. Language                                 : English
  58. Default                                  : Yes
  59. Forced                                   : Yes

  60. Text #2
  61. ID                                       : 4
  62. Format                                   : PGS
  63. Muxing mode                              : zlib
  64. Codec ID                                 : S_HDMV/PGS
  65. Codec ID/Info                            : Picture based subtitle format used on BDs/HD-DVDs
  66. Duration                                 : 1 h 40 min
  67. Bit rate                                 : 49.3 kb/s
  68. Count of elements                        : 2464
  69. Stream size                              : 35.3 MiB (1%)
  70. Title                                    : English
  71. Language                                 : English
  72. Default                                  : No
  73. Forced                                   : No

  74. Menu
  75. 00:00:00.000                             : en:00:00:00.000
  76. 00:09:41.289                             : en:00:09:41.289
  77. 00:17:31.133                             : en:00:17:31.133
  78. 00:37:22.907                             : en:00:37:22.907
  79. 00:48:22.024                             : en:00:48:22.024
  80. 00:56:33.432                             : en:00:56:33.432
  81. 01:05:24.921                             : en:01:05:24.921
  82. 01:12:02.276                             : en:01:12:02.276
  83. 01:20:51.388                             : en:01:20:51.388
  84. 01:33:59.843                             : en:01:33:59.843
复制代码




                                       
                                       

                                       
                                       
                                       




回复

使用道具 举报

懒得打字嘛,点击右侧快捷回复 【右侧内容,后台自定义】
您需要登录后才可以回帖 登录 | 立即加入

本版积分规则

Archiver|小黑屋| 蓝光电影网 |网站地图

Copyright © 2021 Comsenz Inc. Powered by 蓝光电影网

蓝光电影网

本站内容由用户自主分享和转载自互联网,转载目的在于传递更多信息,并不代表本网赞同其观点和对其真实性负责。

如有侵权、违反国家法律政策行为,请联系我们,我们会第一时间及时清除和处理!

举报反馈邮箱:[email protected]

快速回复 返回顶部 返回列表