找回密码

蓝光电影网

查看: 15|回复: 0

[科幻] 占有者 Possessor.2020.UNCUT.1080p.BluRay.x264.DTS-HD.MA.5.1-MT 20.11GB

[复制链接]
蓝光币
386
发表于 2020-12-7 09:20:14 | 显示全部楼层 |阅读模式
[img][/img]

◎译  名 占有者/Possessor Uncut
◎片  名 Possessor
◎年  代 2020
◎产  地 加拿大,英国
◎类  别 科幻 / 惊悚
◎语  言 英语
◎上映日期 2020-01-25(圣丹斯电影节) / 2020-10-02(美国)
◎IMDb评分  6.4/10 from 8981 users
◎IMDb链接  https://www.imdb.com/title/tt5918982/
◎豆瓣评分 6.0/10 from 1800 users
◎豆瓣链接 https://movie.douban.com/subject/30220880/
◎片  长 103分钟
◎导  演 布兰登·柯南伯格 Brandon Cronenberg
◎编  剧 布兰登·柯南伯格 Brandon Cronenberg
◎主  演 肖恩·宾 Sean Bean
       汉娜克·塔波特 Hanneke Talbot
       詹妮弗·杰森·李 Jennifer Jason Leigh
       安德丽娅·赖斯伯勒 Andrea Riseborough
       瑞秋·克劳福德 Rachael Crawford
       塔彭丝·米德尔顿 Tuppence Middleton
       罗西弗·萨瑟兰 Rossif Sutherland
       盖奇·格雷厄姆·阿布斯诺特 Gage Graham-Arbuthnot
       丹尼·沃 Danny Waugh
       克里斯托弗·阿波特 Christopher Abbott
       雷欧·巴奈扎 Raoul Bhaneja
       克里斯托弗·贾科特 Christopher Jacot
       卡内赫迪奥·霍恩 Kaniehtiio Horn
       黛拉格·坎贝尔 Deragh Campbell
       道格·麦克劳德 Doug MacLeod
◎标  签 科幻 | 惊悚 | 犯罪 | 2020 | 加拿大 | 英国 | 电影 | 詹妮弗·杰森·李
◎简  介


  报告一个奥秘构造的奸细Tasya Vos操纵大脑植入技术来“栖息”在他人的身材里,驱使他们为某些高薪客户履行暗杀使命。但是一次例行工作出了过失,她很快发现自己堕入了一个不知情的怀疑犯的思惟中,其对暴力的愿望致使她要和自己作斗争。
◎获奖情况
  第33届东京国际电影节 ?(2020)
  东京首映2020(提名) 布兰登·柯南伯格
  1. Video
  2. ID                                       : 1
  3. Format                                   : AVC
  4. Format/Info                              : Advanced Video Codec
  5. Format profile                           : [email protected]
  6. Format settings                          : CABAC / 4 Ref Frames
  7. Format settings, CABAC                   : Yes
  8. Format settings, Reference frames        : 4 frames
  9. Codec ID                                 : V_MPEG4/ISO/AVC
  10. Duration                                 : 1 h 44 min
  11. Bit rate                                 : 25.3 Mb/s
  12. Width                                    : 1 920 pixels
  13. Height                                   : 1 080 pixels
  14. Display aspect ratio                     : 16:9
  15. Frame rate mode                          : Constant
  16. Frame rate                               : 23.976 (24000/1001/189150) FPS
  17. Color space                              : YUV
  18. Chroma subsampling                       : 4:2:0
  19. Bit depth                                : 8 bits
  20. Scan type                                : Progressive
  21. Bits/(Pixel*Frame)                       : 0.509
  22. Stream size                              : 18.4 GiB (92%)
  23. Writing library                          : x264 core 157 r2938 2b00a84 [email protected] Mod
  24. Encoding settings                        : cabac=1 / ref=4 / deblock=1:-3:-3 / analyse=0x3:0x133 / me=umh / subme=10 / psy=1 / psy_rd=1.05:0.00 / mixed_ref=1 / me_range=32 / chroma_me=1 / trellis=2 / 8x8dct=1 / cqm=0 / deadzone=21,11 / fast_pskip=0 / chroma_qp_offset=-2 / threads=12 / lookahead_threads=2 / sliced_threads=0 / nr=0 / decimate=0 / interlaced=0 / bluray_compat=0 / constrained_intra=0 / bframes=8 / b_pyramid=2 / b_adapt=2 / b_bias=0 / direct=3 / weightb=1 / open_gop=0 / weightp=2 / keyint=250 / keyint_min=24 / scenecut=40 / intra_refresh=0 / rc_lookahead=250 / rc=crf / mbtree=0 / crf=16.8 / qcomp=0.60 / qpmin=0 / qpmax=69 / qpstep=4 / vbv_maxrate=62500 / vbv_bufsize=78125 / crf_max=0.0 / nal_hrd=none / filler=0 / ip_ratio=1.30 / pb_ratio=1.20 / aq=3:0.80
  25. Language                                 : English
  26. Default                                  : Yes
  27. Forced                                   : No
  28. Color range                              : Limited
  29. Color primaries                          : BT.709
  30. Matrix coefficients                      : BT.709
  31. Audio
  32. ID                                       : 2
  33. Format                                   : DTS XLL
  34. Format/Info                              : Digital Theater Systems
  35. Commercial name                          : DTS-HD Master Audio
  36. Codec ID                                 : A_DTS
  37. Duration                                 : 1 h 44 min
  38. Bit rate mode                            : Variable
  39. Bit rate                                 : 2 285 kb/s
  40. Channel(s)                               : 6 channels
  41. Channel layout                           : C L R Ls Rs LFE
  42. Sampling rate                            : 48.0 kHz
  43. Frame rate                               : 93.750 FPS (512 SPF)
  44. Bit depth                                : 24 bits
  45. Compression mode                         : Lossless
  46. Stream size                              : 1.67 GiB (8%)
  47. Language                                 : English
  48. Default                                  : Yes
  49. Forced                                   : No
  50. Text #1
  51. ID                                       : 3
  52. Format                                   : UTF-8
  53. Codec ID                                 : S_TEXT/UTF8
  54. Codec ID/Info                            : UTF-8 Plain Text
  55. Duration                                 : 1 h 33 min
  56. Bit rate                                 : 31 b/s
  57. Count of elements                        : 718
  58. Stream size                              : 21.7 KiB (0%)
  59. Title                                    : SRT
  60. Language                                 : English
  61. Default                                  : Yes
  62. Forced                                   : No
  63. Text #2
  64. ID                                       : 4
  65. Format                                   : PGS
  66. Muxing mode                              : zlib
  67. Codec ID                                 : S_HDMV/PGS
  68. Codec ID/Info                            : Picture based subtitle format used on BDs/HD-DVDs
  69. Duration                                 : 1 h 35 min
  70. Bit rate                                 : 23.4 kb/s
  71. Count of elements                        : 1532
  72. Stream size                              : 16.0 MiB (0%)
  73. Language                                 : English
  74. Default                                  : No
  75. Forced                                   : No
  76. Menu
  77. 00:00:00.000                             : en:Chapter 01
  78. 00:07:47.425                             : en:Chapter 02
  79. 00:15:07.907                             : en:Chapter 03
  80. 00:22:31.433                             : en:Chapter 04
  81. 00:31:58.250                             : en:Chapter 05
  82. 00:41:37.412                             : en:Chapter 06
  83. 00:50:17.348                             : en:Chapter 07
  84. 01:06:07.005                             : en:Chapter 08
  85. 01:15:38.576                             : en:Chapter 09
  86. 01:23:37.679                             : en:Chapter 10
  87. 01:37:13.953                             : en:Chapter 11
复制代码



                                       
                                       

                                       
                                       
                                       




回复

使用道具 举报

懒得打字嘛,点击右侧快捷回复 【右侧内容,后台自定义】
您需要登录后才可以回帖 登录 | 立即加入

本版积分规则

Archiver|小黑屋| 蓝光电影网 |网站地图

Copyright © 2021 Comsenz Inc. Powered by 蓝光电影网

蓝光电影网

本站内容由用户自主分享和转载自互联网,转载目的在于传递更多信息,并不代表本网赞同其观点和对其真实性负责。

如有侵权、违反国家法律政策行为,请联系我们,我们会第一时间及时清除和处理!

举报反馈邮箱:[email protected]

快速回复 返回顶部 返回列表