找回密码

蓝光电影网

查看: 120|回复: 0

[爱情] 香草的天空/香子兰天空 Vanilla.Sky.2001.1080p.BluRay.X264-AMIABLE 10.93GB

[复制链接]
蓝光币
623
发表于 2020-10-13 09:14:52 | 显示全部楼层 |阅读模式


◎译  名 香草的天空/香子兰天空/香草天空(台)/魂离情外天(港)
◎片  名 Vanilla Sky
◎年  代 2001
◎产  地 美国
◎类  别 恋爱 / 科幻 / 悬疑 / 惊悚
◎语  言 英语,西班牙语
◎上映日期 2001-12-14
◎IMDb评分  6.9/10 from 245883 users
◎IMDb链接  https://www.imdb.com/title/tt0259711/
◎豆瓣评分 7.4/10 from 53151 users
◎豆瓣链接 https://movie.douban.com/subject/1299054/
◎片  长 136 分钟
◎导  演 卡梅伦·克罗 Cameron Crowe
◎编  剧 卡梅伦·克罗 Cameron Crowe / 马特奥·希尔 Mateo Gil / 亚历杭德罗·阿梅纳瓦尔 Alejandro Amenábar
◎主  演 汤姆·克鲁斯 Tom Cruise
       佩内洛普·克鲁兹 Penélope Cruz
       卡梅隆·迪亚兹 Cameron Diaz
       库尔特·拉塞尔 Kurt Russell
       杰森·李 Jason Lee
       诺亚·泰勒 Noah Taylor
       蒂莫西·斯波 Timothy Spall
       蒂尔达·斯文顿 Tilda Swinton
       迈克尔·珊农 Michael Shannon
       史蒂文·斯皮尔伯格 Steven Spielberg
       克里斯蒂·威尔 Christie Will
       马克·科兹莱克 Mark Kozelek
       卡梅隆·沃特森 Cameron Watson
       斯黛西·谢尔 Stacey Sher
       乔纳森·桑格 Jonathan Sanger
       Todd Harrison
       罗杰·林 Roger Lim
       艾丽西亚·维特 Alicia Witt
       布伦特·塞克斯顿 Brent Sexton
       威廉·麦鲍瑟 William Mapother
       肯·梁 Ken Leung
       Danielle Wolf
       Andrei Sterling
       Jane Pratt
       柯南·奥布莱恩 Conan O'Brien
       马克·布拉姆霍尔 Mark Bramhall
       Scotch Ellis Loring
       伊万娜·米利塞维奇 Ivana Milicevic
       吉恩·卡罗尔 Jean Carol
       劳拉·弗雷泽 Laura Fraser
       W·厄尔·布朗 W. Earl Brown
       珍妮弗·阿斯彭 Jennifer Aspen
       塔拉·利平斯基 Tara Lipinski
       汤米·李 Tommy Lee
       Ryan Keating
       阿曼德·舒尔茨 Armand Schultz
       约翰尼·盖尔克奇 Johnny Galecki
       路易斯·E·罗萨斯 Louis E. Rosas
       莎洛姆·哈罗 Shalom Harlow
       简·门罗 Jan Munroe
       Michael Kehoe
       马克·平特 Mark Pinter
       Robert F. Harrison
       扎克·哈德逊 Zach Hudson
       詹姆斯·墨塔夫 James Murtaugh
◎标  签 美国 | 悬疑 | 恋爱 | TomCruise | 心理 | 科幻 | 美国电影 | 香草天空
◎简  介


  大卫·阿姆斯(汤姆·克鲁斯 Tom Cruise 饰)可以称为天主的完善佳构:他家境优渥、奇迹有成、仪表堂堂、风姿潇洒,无数性感诱人的女性都为其柔情甘言所倾倒。而大卫自是不愿浪费此日赐的条件,他四周反击,以猎艳为乐,甚至连好友的女朋友索菲娅(佩内洛普·克鲁兹 Penélope Cruz 饰)都不放过。不外,大卫终要为自己的花心支出价格,在和前女友茱丽(卡梅伦·迪雅兹 Cameron Diaz 饰)搭车出行之时,茱丽开车撞向大树,诡计与之玉石俱焚。这场车祸使大卫的人生跌入谷底,而更加诡异的却仍在前面期待着他……
  
  本片荣获2002年美国科幻可骇电影学院最好男配角奖(汤姆·克鲁斯)、2001年波士顿影评人协会最好女配角奖(Cameron Diaz)、2002年芝加哥影评人协会最好女配角奖。
◎获奖情况
  第74届奥斯卡金像奖 ?(2002)
  最好原创歌曲(提名) 保罗·麦卡特尼
  
  第59届金球奖 ?(2002)
  电影类最好女配角(提名) 卡梅隆·迪亚兹
  电影类最好原创歌曲(提名) 保罗·麦卡特尼
  1. Video
  2. ID                                       : 1
  3. Format                                   : AVC
  4. Format/Info                              : Advanced Video Codec
  5. Format profile                           : [email protected]
  6. Format settings                          : CABAC / 4 Ref Frames
  7. Format settings, CABAC                   : Yes
  8. Format settings, Reference frames        : 4 frames
  9. Codec ID                                 : V_MPEG4/ISO/AVC
  10. Duration                                 : 2 h 16 min
  11. Bit rate                                 : 9 990 kb/s
  12. Width                                    : 1 920 pixels
  13. Height                                   : 1 080 pixels
  14. Display aspect ratio                     : 16:9
  15. Frame rate mode                          : Constant
  16. Frame rate                               : 23.976 (24000/1001/189150) FPS
  17. Color space                              : YUV
  18. Chroma subsampling                       : 4:2:0
  19. Bit depth                                : 8 bits
  20. Scan type                                : Progressive
  21. Bits/(Pixel*Frame)                       : 0.201
  22. Stream size                              : 9.49 GiB (87%)
  23. Writing library                          : x264 core 144 r2525 40bb568
  24. Encoding settings                        : cabac=1 / ref=4 / deblock=1:-3:-3 / analyse=0x3:0x113 / me=umh / subme=8 / psy=1 / psy_rd=1.00:0.15 / mixed_ref=1 / me_range=16 / chroma_me=1 / trellis=1 / 8x8dct=1 / cqm=0 / deadzone=21,11 / fast_pskip=0 / chroma_qp_offset=-3 / threads=12 / lookahead_threads=2 / sliced_threads=0 / nr=0 / decimate=1 / interlaced=0 / bluray_compat=0 / constrained_intra=0 / bframes=3 / b_pyramid=2 / b_adapt=2 / b_bias=0 / direct=3 / weightb=1 / open_gop=0 / weightp=2 / keyint=240 / keyint_min=24 / scenecut=40 / intra_refresh=0 / rc_lookahead=50 / rc=2pass / mbtree=1 / bitrate=9990 / ratetol=1.0 / qcomp=0.60 / qpmin=0 / qpmax=69 / qpstep=4 / cplxblur=20.0 / qblur=0.5 / ip_ratio=1.40 / aq=1:1.00
  25. Language                                 : English
  26. Default                                  : Yes
  27. Forced                                   : No

  28. Audio
  29. ID                                       : 2
  30. Format                                   : DTS
  31. Format/Info                              : Digital Theater Systems
  32. Codec ID                                 : A_DTS
  33. Duration                                 : 2 h 16 min
  34. Bit rate mode                            : Constant
  35. Bit rate                                 : 1 509 kb/s
  36. Channel(s)                               : 6 channels
  37. Channel layout                           : C L R Ls Rs LFE
  38. Sampling rate                            : 48.0 kHz
  39. Frame rate                               : 93.750 FPS (512 SPF)
  40. Bit depth                                : 24 bits
  41. Compression mode                         : Lossy
  42. Stream size                              : 1.43 GiB (13%)
  43. Language                                 : English
  44. Default                                  : Yes
  45. Forced                                   : No

  46. Text
  47. ID                                       : 3
  48. Format                                   : UTF-8
  49. Codec ID                                 : S_TEXT/UTF8
  50. Codec ID/Info                            : UTF-8 Plain Text
  51. Duration                                 : 2 h 8 min
  52. Bit rate                                 : 52 b/s
  53. Count of elements                        : 1327
  54. Stream size                              : 49.7 KiB (0%)
  55. Language                                 : English
  56. Default                                  : No
  57. Forced                                   : No

  58. Menu
  59. 00:00:00.000                             : en:00:00:00.000
  60. 00:06:07.867                             : en:00:06:07.867
  61. 00:10:28.878                             : en:00:10:28.878
  62. 00:14:30.787                             : en:00:14:30.787
  63. 00:18:33.696                             : en:00:18:33.696
  64. 00:21:48.724                             : en:00:21:48.724
  65. 00:25:55.637                             : en:00:25:55.637
  66. 00:29:20.509                             : en:00:29:20.509
  67. 00:36:14.422                             : en:00:36:14.422
  68. 00:41:46.421                             : en:00:41:46.421
  69. 00:49:33.220                             : en:00:49:33.220
  70. 00:52:36.236                             : en:00:52:36.236
  71. 00:56:36.143                             : en:00:56:36.143
  72. 01:03:55.081                             : en:01:03:55.081
  73. 01:07:50.984                             : en:01:07:50.984
  74. 01:10:05.952                             : en:01:10:05.952
  75. 01:16:52.858                             : en:01:16:52.858
  76. 01:20:32.828                             : en:01:20:32.828
  77. 01:25:16.695                             : en:01:25:16.695
  78. 01:29:15.600                             : en:01:29:15.600
  79. 01:31:27.649                             : en:01:31:27.649
  80. 01:38:24.482                             : en:01:38:24.482
  81. 01:41:36.507                             : en:01:41:36.507
  82. 01:48:01.308                             : en:01:48:01.308
  83. 01:53:06.279                             : en:01:53:06.279
  84. 01:56:46.249                             : en:01:56:46.249
  85. 02:01:12.182                             : en:02:01:12.182
  86. 02:04:05.104                             : en:02:04:05.104
复制代码








                                       
                                       

                                       
                                       
                                       




回复

使用道具 举报

懒得打字嘛,点击右侧快捷回复 【右侧内容,后台自定义】
您需要登录后才可以回帖 登录 | 立即加入

本版积分规则

Archiver|小黑屋| 蓝光电影网 |网站地图

Copyright © 2021 Comsenz Inc. Powered by 蓝光电影网

蓝光电影网

本站内容由用户自主分享和转载自互联网,转载目的在于传递更多信息,并不代表本网赞同其观点和对其真实性负责。

如有侵权、违反国家法律政策行为,请联系我们,我们会第一时间及时清除和处理!

举报反馈邮箱:[email protected]

快速回复 返回顶部 返回列表