找回密码

蓝光电影网

查看: 29|回复: 0

[爱情] 路人女主的养成方法 Fine Saekano.How.to.Raise.A.Boring.Girlfriend.Fine.2019.JAPANESE.1080p.BluRay.x264.FLAC.2.0-OP 7.83GB

[复制链接]
蓝光币
382
发表于 2020-10-12 23:34:05 | 显示全部楼层 |阅读模式


◎译  名 路人女主的养成方式 Fine/Saekano: How to Raise a Boring Girlfriend Fine/不起眼女配角培育法 Fine/不起眼女配角培育法 戏院版/路人女主的养成方式 戏院版
◎片  名 冴えない彼女の育てかた Fine
◎年  代 2019
◎产  地 日本
◎类  别 恋爱 / 动画
◎语  言 日语
◎上映日期 2019-10-26(日本)
◎IMDb评分  7.5/10 from 96 users
◎IMDb链接  https://www.imdb.com/title/tt11203468/
◎豆瓣评分 9.1/10 from 2693 users
◎豆瓣链接 https://movie.douban.com/subject/27596682/
◎片  长 115分钟
◎导  演 柴田彰久 Akihisa Shibata / 龟井干太 Kanta Kamei
◎编  剧 丸户史明 Fumiaki Maruto
◎主  演 松冈祯丞 Yoshitsugu Matsuoka
       安野稀世乃 Kiyono Yasuno
       矢作纱友里 Sayuri Yahagi
       赤崎千夏 Chinatsu Akasaki
       柿原彻也 Tetsuya Kakihara
       生天目仁美 Hitomi Nabatame
       桑岛法子 Houko Kuwashima
       田边留依 Rui Tanabe
       铃木绘理 Eri Suzuki
       大地叶 You Taichi
       大西沙织 Saori Oonishi
       茅野爱衣 Ai Kayano
◎标  签 路人女主的养成方式 | 戏院版 | 圣人惠 | 动漫 | 二次元 | 日本 | 日漫 | 动画
◎简  介


  某个春日,安艺伦也在樱花飞舞的坡道上与少女·加藤惠命运般地相逢,并想着要建造以她为第一女配角的同人游戏。他约请美术部所属、以同人插画师的身份活动的泽村·斯宾塞·英梨梨,以及学年第一的劣等生、身为轻小说作家活跃中的霞之丘诗羽,配合建立了blessing software。并终究颁发了第一部作品——。
  
  英梨梨和诗羽为了开辟高文游戏《寰域纪年数》而前往人气创作者红坂朱音之处。blessing software的代表伦也继续社团活动,和副代表惠一路起头了新作的开辟。他升引在做插画师的学妹·波岛出海,向身为建造人的出海之兄·伊织发出拜托,和冰堂美智留及其乐队icy tail一同推动着新作的开辟,但是……。
  
  英梨梨和诗羽的高文会变得若何?伦也和惠的关系发生异变?blessing software的新作究竟会走向何方?
  
  围绕着不起眼女配角的青春涂鸦,迎来终幕。
  1. Video
  2. ID                                       : 1
  3. Format                                   : AVC
  4. Format/Info                              : Advanced Video Codec
  5. Format profile                           : [email protected]
  6. Format settings                          : CABAC / 4 Ref Frames
  7. Format settings, CABAC                   : Yes
  8. Format settings, Reference frames        : 4 frames
  9. Codec ID                                 : V_MPEG4/ISO/AVC
  10. Duration                                 : 1 h 54 min
  11. Bit rate                                 : 9 232 kb/s
  12. Width                                    : 1 920 pixels
  13. Height                                   : 1 080 pixels
  14. Display aspect ratio                     : 16:9
  15. Frame rate mode                          : Constant
  16. Frame rate                               : 23.976 (24000/1001/189150) FPS
  17. Color space                              : YUV
  18. Chroma subsampling                       : 4:2:0
  19. Bit depth                                : 8 bits
  20. Scan type                                : Progressive
  21. Bits/(Pixel*Frame)                       : 0.186
  22. Stream size                              : 7.40 GiB (95%)
  23. Writing library                          : x264 core 157 r2935 545de2f
  24. Encoding settings                        : cabac=1 / ref=4 / deblock=1:-1:-1 / analyse=0x3:0x133 / me=umh / subme=7 / psy=1 / psy_rd=1.00:0.00 / mixed_ref=1 / me_range=16 / chroma_me=1 / trellis=2 / 8x8dct=1 / cqm=0 / deadzone=21,11 / fast_pskip=1 / chroma_qp_offset=-2 / threads=12 / lookahead_threads=2 / sliced_threads=0 / nr=0 / decimate=1 / interlaced=0 / bluray_compat=0 / constrained_intra=0 / bframes=8 / b_pyramid=2 / b_adapt=1 / b_bias=0 / direct=1 / weightb=1 / open_gop=0 / weightp=1 / keyint=240 / keyint_min=24 / scenecut=40 / intra_refresh=0 / rc_lookahead=30 / rc=2pass / mbtree=1 / bitrate=9232 / ratetol=1.0 / qcomp=0.60 / qpmin=0 / qpmax=69 / qpstep=4 / cplxblur=20.0 / qblur=0.5 / ip_ratio=1.40 / aq=1:1.00
  25. Default                                  : Yes
  26. Forced                                   : No
  27. Color range                              : Limited
  28. Color primaries                          : BT.709
  29. Transfer characteristics                 : BT.709
  30. Matrix coefficients                      : BT.709
  31. Audio
  32. ID                                       : 2
  33. Format                                   : FLAC
  34. Format/Info                              : Free Lossless Audio Codec
  35. Codec ID                                 : A_FLAC
  36. Duration                                 : 1 h 54 min
  37. Bit rate mode                            : Variable
  38. Bit rate                                 : 527 kb/s
  39. Channel(s)                               : 2 channels
  40. Channel layout                           : L R
  41. Sampling rate                            : 48.0 kHz
  42. Frame rate                               : 10.417 FPS (4608 SPF)
  43. Bit depth                                : 16 bits
  44. Compression mode                         : Lossless
  45. Stream size                              : 433 MiB (5%)
  46. Title                                    : Main Dialogue
  47. Language                                 : Japanese
  48. Default                                  : Yes
  49. Forced                                   : No
  50. Text
  51. ID                                       : 3
  52. Format                                   : UTF-8
  53. Codec ID                                 : S_TEXT/UTF8
  54. Codec ID/Info                            : UTF-8 Plain Text
  55. Duration                                 : 1 h 52 min
  56. Bit rate                                 : 79 b/s
  57. Count of elements                        : 1783
  58. Stream size                              : 65.6 KiB (0%)
  59. Language                                 : English
  60. Default                                  : Yes
  61. Forced                                   : No
  62. Menu
  63. 00:00:00.000                             : :Chapter 1
  64. 00:00:14.014                             : :Chapter 2
  65. 00:12:36.214                             : :Chapter 3
  66. 00:16:59.936                             : :Chapter 4
  67. 00:23:45.925                             : :Chapter 5
  68. 00:31:37.604                             : :Chapter 6
  69. 00:40:00.398                             : :Chapter 7
  70. 00:45:20.760                             : :Chapter 8
  71. 00:51:50.566                             : :Chapter 9
  72. 00:57:58.767                             : :Chapter 10
  73. 01:04:25.111                             : :Chapter 11
  74. 01:11:39.796                             : :Chapter 12
  75. 01:17:23.097                             : :Chapter 13
  76. 01:24:40.951                             : :Chapter 14
  77. 01:37:49.322                             : :Chapter 15
  78. 01:44:09.744                             : :Chapter 16
复制代码






                                       
                                       

                                       
                                       
                                       




路人女主的养成方式 Fine Saekano.How.to.Raise.A.Boring.Girlfriend.Fine.2019.JAPANESE.1080p.BluRay.x264.FLAC.2.0-OP 7.83GB

Saekano.How.to.Raise.A.Boring.Girlfriend.Fine.2019.JAPANESE.1080p.BluRay.x264.FL.zip

40.71 KB, 下载次数: 0, 下载积分: 蓝光币 -2

回复

使用道具 举报

懒得打字嘛,点击右侧快捷回复 【右侧内容,后台自定义】
您需要登录后才可以回帖 登录 | 立即加入

本版积分规则

Archiver|小黑屋| 蓝光电影网 |网站地图

Copyright © 2021 Comsenz Inc. Powered by 蓝光电影网

蓝光电影网

本站内容由用户自主分享和转载自互联网,转载目的在于传递更多信息,并不代表本网赞同其观点和对其真实性负责。

如有侵权、违反国家法律政策行为,请联系我们,我们会第一时间及时清除和处理!

举报反馈邮箱:[email protected]

快速回复 返回顶部 返回列表