找回密码

蓝光电影网

查看: 7|回复: 0

[动作] 圣徒/七海游侠 The.Saint.1997.1080p.BluRay.x264-GUACAMOLE 18.56GB

[复制链接]
蓝光币
382
发表于 2021-5-30 08:57:57 | 显示全部楼层 |阅读模式


◎译  名 圣徒/七海游侠/侠圣/神鬼至尊
◎片  名 The Saint
◎年  代 1997
◎产  地 美国
◎类  别 行动 / 恋爱 / 科幻 / 惊悚
◎语  言 英语,俄语
◎上映日期 1997-04-04(美国)
◎豆瓣评分 7.1/10 from 2268 users
◎豆瓣链接 https://movie.douban.com/subject/1295708/
◎片  长 116分钟
◎导  演 菲利普·诺伊斯 Phillip Noyce
◎编  剧 乔纳森·汉斯雷 Jonathan Hensleigh / 韦斯利·斯崔克 Wesley Strick
◎主  演 方·基默 Val Kilmer
       伊丽莎白·苏 Elisabeth Shue
       拉德·舍博德兹加 Rade Serbedzija
       瓦列里·尼古拉耶夫 Valeriy Nikolaev
       亨利·古德曼 Henry Goodman
       艾伦·阿姆斯特朗 Alun Armstrong
       迈克尔·伯恩 Michael Byrne
       叶夫盖尼·拉扎列夫 Evgeniy Lazarev
       伊琳娜·阿贝克斯莫娃 Irina Apeksimova
       列夫·普雷古诺夫 Lev Prygunov
       夏洛特康威尔 Charlotte Cornwell
       艾米莉·莫迪默 Emily Mortimer
       Lucija Serbedzija
       维利贝·托皮奇 Velibor Topic
       汤米·弗拉纳根 Tommy Flanagan
       Egor Pazenko
       Adam Smith
       彼得·吉尼斯 Peter Guinness
       威廉·霍普 William Hope
◎标  签 行动 | 美国 | 犯罪 | 侠盗 | 恋爱 | 美国电影 | 1997 | ValKilmer
◎简  介


  孤儿西蒙(方·基默 Val Kilmer 饰)幼时生活在教会孤儿院中,那边留给他的,除了施洗者约翰的新名字与严苛的赏罚之外,还有撬门开锁的才能。多年今后,西蒙已经是著名的大盗,他计划张罗5000万以后脱胎换骨,享用人生。西承受命远赴莫斯科,窃取了政党魁首兼石油寡头伊万(拉德·舍博德兹加 Rade Serbedzija 饰)的芯片,自此与伊万父子“结缘”。西蒙为高额报答再度接管使命,而此次的店主居然是伊万父子,他们命西蒙窃取足以处理能源危机的核技术。西蒙乔装接近把握核技术的艾玛博士(伊丽莎白·苏 Elisabeth Shue 饰),与博士暗生情愫的同时,对付着伊万父子的辣手使命……
  1. Video
  2. ID                                       : 1
  3. Format                                   : AVC
  4. Format/Info                              : Advanced Video Codec
  5. Format profile                           : [email protected]
  6. Format settings                          : CABAC / 5 Ref Frames
  7. Format settings, CABAC                   : Yes
  8. Format settings, Reference frames        : 5 frames
  9. Codec ID                                 : V_MPEG4/ISO/AVC
  10. Duration                                 : 1 h 56 min
  11. Bit rate                                 : 18.2 Mb/s
  12. Width                                    : 1 920 pixels
  13. Height                                   : 820 pixels
  14. Display aspect ratio                     : 2.35:1
  15. Frame rate mode                          : Constant
  16. Frame rate                               : 23.976 (24000/1001/189150) FPS
  17. Color space                              : YUV
  18. Chroma subsampling                       : 4:2:0
  19. Bit depth                                : 8 bits
  20. Scan type                                : Progressive
  21. Bits/(Pixel*Frame)                       : 0.481
  22. Stream size                              : 14.7 GiB (79%)
  23. Writing library                          : x264 core 163 r3059 b684ebe
  24. Encoding settings                        : cabac=1 / ref=5 / deblock=1:-3:-3 / analyse=0x3:0x133 / me=umh / subme=9 / psy=1 / psy_rd=1.00:0.00 / mixed_ref=1 / me_range=16 / chroma_me=1 / trellis=2 / 8x8dct=1 / cqm=0 / deadzone=21,11 / fast_pskip=0 / chroma_qp_offset=-2 / threads=24 / lookahead_threads=2 / sliced_threads=0 / nr=0 / decimate=1 / interlaced=0 / bluray_compat=0 / constrained_intra=0 / bframes=3 / b_pyramid=2 / b_adapt=2 / b_bias=0 / direct=3 / weightb=1 / open_gop=0 / weightp=2 / keyint=250 / keyint_min=23 / scenecut=40 / intra_refresh=0 / rc_lookahead=60 / rc=crf / mbtree=1 / crf=17.0 / qcomp=0.60 / qpmin=0 / qpmax=69 / qpstep=4 / ip_ratio=1.40 / aq=3:0.60
  25. Default                                  : Yes
  26. Forced                                   : No
  27. Color range                              : Limited
  28. Matrix coefficients                      : BT.709

  29. Audio #1
  30. ID                                       : 2
  31. Format                                   : MLP FBA
  32. Format/Info                              : Meridian Lossless Packing FBA
  33. Commercial name                          : Dolby TrueHD
  34. Codec ID                                 : A_TRUEHD
  35. Duration                                 : 1 h 56 min
  36. Bit rate mode                            : Variable
  37. Bit rate                                 : 3 788 kb/s
  38. Maximum bit rate                         : 4 890 kb/s
  39. Channel(s)                               : 6 channels
  40. Channel layout                           : L R C LFE Ls Rs
  41. Sampling rate                            : 48.0 kHz
  42. Frame rate                               : 1 200.000 FPS (40 SPF)
  43. Compression mode                         : Lossless
  44. Stream size                              : 3.07 GiB (17%)
  45. Language                                 : English
  46. Default                                  : Yes
  47. Forced                                   : No

  48. Audio #2
  49. ID                                       : 3
  50. Format                                   : AC-3
  51. Format/Info                              : Audio Coding 3
  52. Commercial name                          : Dolby Digital
  53. Codec ID                                 : A_AC3
  54. Duration                                 : 1 h 56 min
  55. Bit rate mode                            : Constant
  56. Bit rate                                 : 640 kb/s
  57. Channel(s)                               : 6 channels
  58. Channel layout                           : L R C LFE Ls Rs
  59. Sampling rate                            : 48.0 kHz
  60. Frame rate                               : 31.250 FPS (1536 SPF)
  61. Compression mode                         : Lossy
  62. Stream size                              : 532 MiB (3%)
  63. Language                                 : English
  64. Service kind                             : Complete Main
  65. Default                                  : No
  66. Forced                                   : No

  67. Audio #3
  68. ID                                       : 4
  69. Format                                   : AAC LC
  70. Format/Info                              : Advanced Audio Codec Low Complexity
  71. Codec ID                                 : A_AAC-2
  72. Duration                                 : 1 h 56 min
  73. Bit rate                                 : 101 kb/s
  74. Channel(s)                               : 2 channels
  75. Channel layout                           : L R
  76. Sampling rate                            : 48.0 kHz
  77. Frame rate                               : 46.875 FPS (1024 SPF)
  78. Compression mode                         : Lossy
  79. Delay relative to video                  : 9 ms
  80. Stream size                              : 84.0 MiB (0%)
  81. Language                                 : English
  82. Default                                  : No
  83. Forced                                   : No

  84. Text #1
  85. ID                                       : 5
  86. Format                                   : PGS
  87. Muxing mode                              : zlib
  88. Codec ID                                 : S_HDMV/PGS
  89. Codec ID/Info                            : Picture based subtitle format used on BDs/HD-DVDs
  90. Duration                                 : 1 h 50 min
  91. Bit rate                                 : 27.8 kb/s
  92. Count of elements                        : 1930
  93. Stream size                              : 21.9 MiB (0%)
  94. Title                                    : Vobsubs
  95. Language                                 : English
  96. Default                                  : No
  97. Forced                                   : No

  98. Text #2
  99. ID                                       : 6
  100. Format                                   : PGS
  101. Muxing mode                              : zlib
  102. Codec ID                                 : S_HDMV/PGS
  103. Codec ID/Info                            : Picture based subtitle format used on BDs/HD-DVDs
  104. Duration                                 : 1 h 53 min
  105. Bit rate                                 : 31.7 kb/s
  106. Count of elements                        : 2316
  107. Stream size                              : 25.8 MiB (0%)
  108. Title                                    : SDH
  109. Language                                 : English
  110. Default                                  : No
  111. Forced                                   : No

  112. Text #3
  113. ID                                       : 7
  114. Format                                   : PGS
  115. Muxing mode                              : zlib
  116. Codec ID                                 : S_HDMV/PGS
  117. Codec ID/Info                            : Picture based subtitle format used on BDs/HD-DVDs
  118. Duration                                 : 1 h 51 min
  119. Bit rate                                 : 57.6 kb/s
  120. Count of elements                        : 3184
  121. Stream size                              : 45.9 MiB (0%)
  122. Title                                    : Commentary
  123. Language                                 : English
  124. Default                                  : No
  125. Forced                                   : No

  126. Text #4
  127. ID                                       : 8
  128. Format                                   : PGS
  129. Muxing mode                              : zlib
  130. Codec ID                                 : S_HDMV/PGS
  131. Codec ID/Info                            : Picture based subtitle format used on BDs/HD-DVDs
  132. Duration                                 : 1 h 55 min
  133. Bit rate                                 : 27.5 kb/s
  134. Count of elements                        : 2092
  135. Stream size                              : 22.7 MiB (0%)
  136. Title                                    : Vobsubs
  137. Language                                 : French
  138. Default                                  : No
  139. Forced                                   : No

  140. Text #5
  141. ID                                       : 9
  142. Format                                   : PGS
  143. Muxing mode                              : zlib
  144. Codec ID                                 : S_HDMV/PGS
  145. Codec ID/Info                            : Picture based subtitle format used on BDs/HD-DVDs
  146. Duration                                 : 1 h 55 min
  147. Bit rate                                 : 54.1 kb/s
  148. Count of elements                        : 3182
  149. Stream size                              : 44.8 MiB (0%)
  150. Title                                    : SDH
  151. Language                                 : French
  152. Default                                  : No
  153. Forced                                   : No

  154. Text #6
  155. ID                                       : 10
  156. Format                                   : PGS
  157. Muxing mode                              : zlib
  158. Codec ID                                 : S_HDMV/PGS
  159. Codec ID/Info                            : Picture based subtitle format used on BDs/HD-DVDs
  160. Duration                                 : 1 h 55 min
  161. Bit rate                                 : 436 b/s
  162. Count of elements                        : 46
  163. Stream size                              : 369 KiB (0%)
  164. Title                                    : Forced
  165. Language                                 : French
  166. Default                                  : No
  167. Forced                                   : No

  168. Text #7
  169. ID                                       : 11
  170. Format                                   : PGS
  171. Muxing mode                              : zlib
  172. Codec ID                                 : S_HDMV/PGS
  173. Codec ID/Info                            : Picture based subtitle format used on BDs/HD-DVDs
  174. Duration                                 : 1 h 55 min
  175. Bit rate                                 : 27.5 kb/s
  176. Count of elements                        : 2002
  177. Stream size                              : 22.7 MiB (0%)
  178. Title                                    : Vobsubs
  179. Language                                 : German
  180. Default                                  : No
  181. Forced                                   : No

  182. Text #8
  183. ID                                       : 12
  184. Format                                   : PGS
  185. Muxing mode                              : zlib
  186. Codec ID                                 : S_HDMV/PGS
  187. Codec ID/Info                            : Picture based subtitle format used on BDs/HD-DVDs
  188. Duration                                 : 1 h 55 min
  189. Bit rate                                 : 58.3 kb/s
  190. Count of elements                        : 3184
  191. Stream size                              : 48.3 MiB (0%)
  192. Title                                    : Commentary
  193. Language                                 : German
  194. Default                                  : No
  195. Forced                                   : No

  196. Text #9
  197. ID                                       : 13
  198. Format                                   : PGS
  199. Muxing mode                              : zlib
  200. Codec ID                                 : S_HDMV/PGS
  201. Codec ID/Info                            : Picture based subtitle format used on BDs/HD-DVDs
  202. Duration                                 : 1 h 55 min
  203. Bit rate                                 : 950 b/s
  204. Count of elements                        : 92
  205. Stream size                              : 804 KiB (0%)
  206. Title                                    : Forced
  207. Language                                 : German
  208. Default                                  : No
  209. Forced                                   : No

  210. Text #10
  211. ID                                       : 14
  212. Format                                   : PGS
  213. Muxing mode                              : zlib
  214. Codec ID                                 : S_HDMV/PGS
  215. Codec ID/Info                            : Picture based subtitle format used on BDs/HD-DVDs
  216. Duration                                 : 1 h 55 min
  217. Bit rate                                 : 21.0 kb/s
  218. Count of elements                        : 2259
  219. Stream size                              : 17.3 MiB (0%)
  220. Title                                    : Vobsubs
  221. Language                                 : Japanese
  222. Default                                  : No
  223. Forced                                   : No

  224. Text #11
  225. ID                                       : 15
  226. Format                                   : PGS
  227. Muxing mode                              : zlib
  228. Codec ID                                 : S_HDMV/PGS
  229. Codec ID/Info                            : Picture based subtitle format used on BDs/HD-DVDs
  230. Duration                                 : 1 h 51 min
  231. Bit rate                                 : 41.0 kb/s
  232. Count of elements                        : 2458
  233. Stream size                              : 32.7 MiB (0%)
  234. Title                                    : Commentary
  235. Language                                 : Japanese
  236. Default                                  : No
  237. Forced                                   : No

  238. Text #12
  239. ID                                       : 16
  240. Format                                   : PGS
  241. Muxing mode                              : zlib
  242. Codec ID                                 : S_HDMV/PGS
  243. Codec ID/Info                            : Picture based subtitle format used on BDs/HD-DVDs
  244. Duration                                 : 1 h 55 min
  245. Bit rate                                 : 404 b/s
  246. Count of elements                        : 43
  247. Stream size                              : 342 KiB (0%)
  248. Title                                    : Forced
  249. Language                                 : Japanese
  250. Default                                  : No
  251. Forced                                   : No

  252. Menu
  253. 00:00:00.000                             : en:00:00:00.000
  254. 00:07:23.526                             : en:00:07:23.526
  255. 00:11:53.129                             : en:00:11:53.129
  256. 00:16:27.528                             : en:00:16:27.528
  257. 00:21:14.273                             : en:00:21:14.273
  258. 00:27:32.067                             : en:00:27:32.067
  259. 00:34:08.922                             : en:00:34:08.922
  260. 00:39:29.492                             : en:00:39:29.492
  261. 00:44:15.736                             : en:00:44:15.736
  262. 00:49:20.499                             : en:00:49:20.499
  263. 00:55:32.955                             : en:00:55:32.955
  264. 01:00:06.978                             : en:01:00:06.978
  265. 01:05:56.244                             : en:01:05:56.244
  266. 01:11:29.035                             : en:01:11:29.035
  267. 01:17:33.983                             : en:01:17:33.983
  268. 01:21:49.905                             : en:01:21:49.905
  269. 01:25:53.690                             : en:01:25:53.690
  270. 01:31:43.289                             : en:01:31:43.289
  271. 01:38:15.056                             : en:01:38:15.056
  272. 01:42:03.868                             : en:01:42:03.868
  273. 01:50:45.055                             : en:01:50:45.055
复制代码





                                       
                                       

                                       
                                       
                                       




回复

使用道具 举报

懒得打字嘛,点击右侧快捷回复 【右侧内容,后台自定义】
您需要登录后才可以回帖 登录 | 立即加入

本版积分规则

Archiver|小黑屋| 蓝光电影网 |网站地图

Copyright © 2021 Comsenz Inc. Powered by 蓝光电影网

蓝光电影网

本站内容由用户自主分享和转载自互联网,转载目的在于传递更多信息,并不代表本网赞同其观点和对其真实性负责。

如有侵权、违反国家法律政策行为,请联系我们,我们会第一时间及时清除和处理!

举报反馈邮箱:[email protected]

快速回复 返回顶部 返回列表