找回密码

蓝光电影网

查看: 7|回复: 0

[惊悚] 嗜育者/侵密殺機 Breeder.2020.720p.BluRay.x264-ORBS 5.91GB

[复制链接]
蓝光币
382
发表于 2021-3-9 22:13:32 | 显示全部楼层 |阅读模式


◎译  名 嗜育者/侵密殺機(台)
◎片  名 Breeder
◎年  代 2020
◎产  地 丹麦
◎类  别 惊悚 / 可骇
◎语  言 丹麦语
◎上映日期 
◎IMDb评分  5.6/10 from 621 users
◎IMDb链接  https://www.imdb.com/title/tt11003228/
◎豆瓣评分 4.6/10 from 202 users
◎豆瓣链接 https://movie.douban.com/subject/34878668/
◎导  演 延斯·达尔 Jens Dahl
◎主  演 莎拉·约尔特·蒂特莱芙瑟 Sara Hjort Ditlevsen
       莫腾·霍尔斯特 Morten Holst
◎标  签 丹麦 | 犯罪 | 惊悚 | 2020 | 可骇 | 丹麦电影 | 电影 | 变蛋好人蠢蛋
◎简  介


  一位經營保健品公司的無情女老闆,不斷綁架年輕女性,對她們進行可怕的基因革新,以獲得返老還童之術。當米雅前往調查時,落入對方手中,隨後被關在陰暗的地下室,身體被打上烙印,受盡熬煎。熟悉的面孔開始出現,米雅發現自己並不孤單。她能否能找回內心的气力,逃離這場噩夢?
  1. Video
  2. ID                                       : 1
  3. Format                                   : AVC
  4. Format/Info                              : Advanced Video Codec
  5. Format profile                           : [email protected]
  6. Format settings                          : CABAC / 12 Ref Frames
  7. Format settings, CABAC                   : Yes
  8. Format settings, Reference frames        : 12 frames
  9. Codec ID                                 : V_MPEG4/ISO/AVC
  10. Duration                                 : 1 h 47 min
  11. Bit rate                                 : 7 218 kb/s
  12. Width                                    : 1 280 pixels
  13. Height                                   : 538 pixels
  14. Display aspect ratio                     : 2.40:1
  15. Frame rate mode                          : Constant
  16. Frame rate                               : 23.976 (24000/1001/189150) FPS
  17. Color space                              : YUV
  18. Chroma subsampling                       : 4:2:0
  19. Bit depth                                : 8 bits
  20. Scan type                                : Progressive
  21. Bits/(Pixel*Frame)                       : 0.437
  22. Stream size                              : 5.42 GiB (92%)
  23. Writing library                          : x264 core 161 r3048 b86ae3c
  24. Encoding settings                        : cabac=1 / ref=12 / deblock=1:-3:-3 / analyse=0x3:0x133 / me=umh / subme=10 / psy=1 / psy_rd=1.20:0.00 / mixed_ref=1 / me_range=24 / chroma_me=1 / trellis=2 / 8x8dct=1 / cqm=0 / deadzone=21,11 / fast_pskip=0 / chroma_qp_offset=-2 / threads=17 / lookahead_threads=2 / sliced_threads=0 / nr=0 / decimate=0 / interlaced=0 / bluray_compat=0 / constrained_intra=0 / bframes=8 / b_pyramid=2 / b_adapt=2 / b_bias=0 / direct=3 / weightb=1 / open_gop=0 / weightp=2 / keyint=250 / keyint_min=23 / scenecut=40 / intra_refresh=0 / rc_lookahead=60 / rc=crf / mbtree=1 / crf=15.0 / qcomp=0.60 / qpmin=0 / qpmax=69 / qpstep=4 / ip_ratio=1.40 / aq=3:0.90
  25. Default                                  : Yes
  26. Forced                                   : No
  27. Color range                              : Limited
  28. Matrix coefficients                      : BT.709

  29. Audio
  30. ID                                       : 2
  31. Format                                   : AC-3
  32. Format/Info                              : Audio Coding 3
  33. Commercial name                          : Dolby Digital
  34. Codec ID                                 : A_AC3
  35. Duration                                 : 1 h 47 min
  36. Bit rate mode                            : Constant
  37. Bit rate                                 : 640 kb/s
  38. Channel(s)                               : 6 channels
  39. Channel layout                           : L R C LFE Ls Rs
  40. Sampling rate                            : 48.0 kHz
  41. Frame rate                               : 31.250 FPS (1536 SPF)
  42. Compression mode                         : Lossy
  43. Stream size                              : 492 MiB (8%)
  44. Language                                 : Danish
  45. Service kind                             : Complete Main
  46. Default                                  : Yes
  47. Forced                                   : No

  48. Text #1
  49. ID                                       : 3
  50. Format                                   : UTF-8
  51. Codec ID                                 : S_TEXT/UTF8
  52. Codec ID/Info                            : UTF-8 Plain Text
  53. Duration                                 : 1 h 43 min
  54. Bit rate                                 : 22 b/s
  55. Count of elements                        : 507
  56. Stream size                              : 17.3 KiB (0%)
  57. Title                                    : English (Forced)
  58. Language                                 : English
  59. Default                                  : Yes
  60. Forced                                   : Yes

  61. Text #2
  62. ID                                       : 4
  63. Format                                   : PGS
  64. Muxing mode                              : zlib
  65. Codec ID                                 : S_HDMV/PGS
  66. Codec ID/Info                            : Picture based subtitle format used on BDs/HD-DVDs
  67. Duration                                 : 1 h 43 min
  68. Bit rate                                 : 14.6 kb/s
  69. Count of elements                        : 1014
  70. Stream size                              : 10.8 MiB (0%)
  71. Language                                 : English
  72. Default                                  : No
  73. Forced                                   : No

  74. Menu
  75. 00:00:00.000                             : en:Chapter 01
  76. 00:08:50.864                             : en:Chapter 02
  77. 00:19:28.417                             : en:Chapter 03
  78. 00:30:22.738                             : en:Chapter 04
  79. 00:37:51.895                             : en:Chapter 05
  80. 00:50:12.426                             : en:Chapter 06
  81. 00:59:59.596                             : en:Chapter 07
  82. 01:10:46.451                             : en:Chapter 08
  83. 01:19:01.111                             : en:Chapter 09
  84. 01:29:07.259                             : en:Chapter 10
  85. 01:41:48.394                             : en:Chapter 11
复制代码




                                       
                                       

                                       
                                       
                                       




回复

使用道具 举报

懒得打字嘛,点击右侧快捷回复 【右侧内容,后台自定义】
您需要登录后才可以回帖 登录 | 立即加入

本版积分规则

Archiver|小黑屋| 蓝光电影网 |网站地图

Copyright © 2021 Comsenz Inc. Powered by 蓝光电影网

蓝光电影网

本站内容由用户自主分享和转载自互联网,转载目的在于传递更多信息,并不代表本网赞同其观点和对其真实性负责。

如有侵权、违反国家法律政策行为,请联系我们,我们会第一时间及时清除和处理!

举报反馈邮箱:[email protected]

快速回复 返回顶部 返回列表