找回密码

蓝光电影网

查看: 23|回复: 0

[恐怖] 魔山历险 Whiskey.Mountain.1977.1080p.BluRay.x264.FLAC1.0-SB 6.61GB

[复制链接]
蓝光币
426
发表于 2021-1-16 14:27:25 | 显示全部楼层 |阅读模式
[img][/img]

◎译  名 魔山历险
◎片  名 Whiskey Mountain
◎年  代 1977
◎产  地 美国
◎类  别 可骇
◎语  言 英语
◎上映日期 1977
◎IMDb评分  5.4/10 from 154 users
◎IMDb链接  https://www.imdb.com/title/tt0076914/
◎豆瓣评分 /10 from 0 users
◎豆瓣链接 https://movie.douban.com/subject/5052714/
◎片  长 USA: 95 分钟
◎导  演 威廉·格雷菲 William Grefe
◎编  剧 威廉·格雷菲 William Grefe
◎主  演 克里斯托弗·乔治 Christopher George
       普雷斯顿·皮尔斯 Preston Pierce
       罗伯塔·科林斯 Roberta Collins
       约翰·戴维斯·钱德勒 John Davis Chandler
       William Kerwin
◎标  签 美国电影 | 可骇 | 被轻忽的电影 | 惊悚
◎简  介


  暂无相关剧情先容
  1. Video
  2. ID                                       : 1
  3. Format                                   : AVC
  4. Format/Info                              : Advanced Video Codec
  5. Format profile                           : [email protected]
  6. Format settings                          : CABAC / 4 Ref Frames
  7. Format settings, CABAC                   : Yes
  8. Format settings, Reference frames        : 4 frames
  9. Codec ID                                 : V_MPEG4/ISO/AVC
  10. Duration                                 : 1 h 30 min
  11. Bit rate                                 : 10.3 Mb/s
  12. Width                                    : 1 920 pixels
  13. Height                                   : 722 pixels
  14. Display aspect ratio                     : 2.659
  15. Frame rate mode                          : Constant
  16. Frame rate                               : 23.976 (24000/1001/189150) FPS
  17. Color space                              : YUV
  18. Chroma subsampling                       : 4:2:0
  19. Bit depth                                : 8 bits
  20. Scan type                                : Progressive
  21. Bits/(Pixel*Frame)                       : 0.309
  22. Stream size                              : 6.47 GiB (98%)
  23. Title                                    : Whiskey.Mountain.1977.1080p.BluRay.x264-SB
  24. Writing library                          : x264 core 148 r2708 86b7198
  25. Encoding settings                        : cabac=1 / ref=1 / deblock=1:0:0 / analyse=0x3:0x113 / me=hex / subme=2 / psy=1 / psy_rd=1.00:0.00 / mixed_ref=0 / me_range=16 / chroma_me=1 / trellis=0 / 8x8dct=1 / cqm=0 / deadzone=21,11 / fast_pskip=1 / chroma_qp_offset=0 / threads=6 / lookahead_threads=2 / sliced_threads=0 / nr=0 / decimate=1 / interlaced=0 / bluray_compat=0 / constrained_intra=0 / bframes=3 / b_pyramid=2 / b_adapt=1 / b_bias=0 / direct=1 / weightb=1 / open_gop=0 / weightp=1 / keyint=240 / keyint_min=24 / scenecut=40 / intra_refresh=0 / rc_lookahead=10 / rc=crf / mbtree=1 / crf=20.0 / qcomp=0.60 / qpmin=0 / qpmax=69 / qpstep=4 / vbv_maxrate=62500 / vbv_bufsize=78125 / crf_max=0.0 / nal_hrd=none / filler=0 / ip_ratio=1.40 / aq=1:1.00
  26. Language                                 : English
  27. Default                                  : Yes
  28. Forced                                   : No
  29. Color range                              : Limited
  30. Color primaries                          : BT.709
  31. Transfer characteristics                 : BT.709
  32. Matrix coefficients                      : BT.709
  33. Audio
  34. ID                                       : 2
  35. Format                                   : FLAC
  36. Format/Info                              : Free Lossless Audio Codec
  37. Codec ID                                 : A_FLAC
  38. Duration                                 : 1 h 30 min
  39. Bit rate mode                            : Variable
  40. Bit rate                                 : 216 kb/s
  41. Channel(s)                               : 1 channel
  42. Channel layout                           : C
  43. Sampling rate                            : 48.0 kHz
  44. Frame rate                               : 10.417 FPS (4608 SPF)
  45. Bit depth                                : 16 bits
  46. Compression mode                         : Lossless
  47. Stream size                              : 139 MiB (2%)
  48. Title                                    : Mono
  49. Language                                 : English
  50. Default                                  : Yes
  51. Forced                                   : No
  52. Text #1
  53. ID                                       : 3
  54. Format                                   : UTF-8
  55. Codec ID                                 : S_TEXT/UTF8
  56. Codec ID/Info                            : UTF-8 Plain Text
  57. Duration                                 : 1 h 29 min
  58. Bit rate                                 : 33 b/s
  59. Count of elements                        : 690
  60. Stream size                              : 21.8 KiB (0%)
  61. Language                                 : English
  62. Default                                  : Yes
  63. Forced                                   : No
  64. Text #2
  65. ID                                       : 4
  66. Format                                   : PGS
  67. Muxing mode                              : zlib
  68. Codec ID                                 : S_HDMV/PGS
  69. Codec ID/Info                            : Picture based subtitle format used on BDs/HD-DVDs
  70. Duration                                 : 1 h 29 min
  71. Bit rate                                 : 20.3 kb/s
  72. Count of elements                        : 1494
  73. Stream size                              : 13.1 MiB (0%)
  74. Language                                 : English
  75. Default                                  : No
  76. Forced                                   : No
复制代码



                                       
                                       

                                       
                                       
                                       




回复

使用道具 举报

懒得打字嘛,点击右侧快捷回复 【右侧内容,后台自定义】
您需要登录后才可以回帖 登录 | 立即加入

本版积分规则

Archiver|小黑屋| 蓝光电影网 |网站地图

Copyright © 2021 Comsenz Inc. Powered by 蓝光电影网

蓝光电影网

本站内容由用户自主分享和转载自互联网,转载目的在于传递更多信息,并不代表本网赞同其观点和对其真实性负责。

如有侵权、违反国家法律政策行为,请联系我们,我们会第一时间及时清除和处理!

举报反馈邮箱:[email protected]

快速回复 返回顶部 返回列表