找回密码

蓝光电影网

查看: 18|回复: 0

[喜剧] 美国职棒大联盟2/域夸队长 2 Major.League.II.1994.720p.BluRay.x264-PSYCHD 5.48GB

[复制链接]
蓝光币
426
发表于 2019-10-12 02:00:40 | 显示全部楼层 |阅读模式


◎译  名 美国职棒大同盟2 / 域夸队长 2 / 大同盟2: 绝地大反扑 / 大同盟2:绝地大反扑
◎片  名 Major League II
◎年  代 1994
◎产  地 美国
◎类  别 笑剧 / 活动
◎语  言 英语
◎上映日期 1994-03-30
◎IMDb评分  5.6/10 from 23720 users
◎IMDb链接  https://www.imdb.com/title/tt0110442
◎豆瓣评分 7.4/10 from 208 users
◎豆瓣链接 https://movie.douban.com/subject/1294081/
◎片  长 105 分钟
◎导  演 大卫·S·瓦德 David S. Ward
◎编  剧 大卫·S·瓦德 David S. Ward / Jim Jennewein / R.J. Stewart
◎主  演 Charlie Sheen
       Tom Berenger
       Corbin Bernsen
       Dennis Haysbert
       James Gammon
       Omar Epps
       Eric Bruskotter
       石橋貴明

◎标  签 棒球 | 笑剧 | 体育 | 美国 | 电影 | 美国电影 | 搞笑 | 恶搞
◎简  介  
  暂无相关剧情先容
  1. Video
  2. ID                                       : 1
  3. Format                                   : AVC
  4. Format/Info                              : Advanced Video Codec
  5. Format profile                           : [email protected]
  6. Format settings                          : CABAC / 5 Ref Frames
  7. Format settings, CABAC                   : Yes
  8. Format settings, Reference frames        : 5 frames
  9. Codec ID                                 : V_MPEG4/ISO/AVC
  10. Duration                                 : 1 h 44 min
  11. Bit rate                                 : 5 955 kb/s
  12. Width                                    : 1 280 pixels
  13. Height                                   : 696 pixels
  14. Display aspect ratio                     : 1.85:1
  15. Frame rate mode                          : Constant
  16. Frame rate                               : 23.976 (24000/1001) FPS
  17. Color space                              : YUV
  18. Chroma subsampling                       : 4:2:0
  19. Bit depth                                : 8 bits
  20. Scan type                                : Progressive
  21. Bits/(Pixel*Frame)                       : 0.279
  22. Stream size                              : 4.25 GiB (78%)
  23. Writing library                          : x264 core 158 r2984 3759fcb
  24. Encoding settings                        : cabac=1 / ref=5 / deblock=1:-3:-3 / analyse=0x3:0x113 / me=umh / subme=8 / psy=1 / psy_rd=1.05:0.00 / mixed_ref=1 / me_range=24 / chroma_me=1 / trellis=2 / 8x8dct=1 / cqm=0 / deadzone=21,11 / fast_pskip=1 / chroma_qp_offset=-2 / threads=22 / lookahead_threads=3 / sliced_threads=0 / nr=0 / decimate=1 / interlaced=0 / bluray_compat=0 / constrained_intra=0 / bframes=3 / b_pyramid=2 / b_adapt=2 / b_bias=0 / direct=3 / weightb=1 / open_gop=0 / weightp=2 / keyint=240 / keyint_min=24 / scenecut=40 / intra_refresh=0 / rc_lookahead=50 / rc=2pass / mbtree=1 / bitrate=5955 / ratetol=1.0 / qcomp=0.60 / qpmin=0 / qpmax=69 / qpstep=4 / cplxblur=20.0 / qblur=0.5 / ip_ratio=1.40 / aq=3:0.70
  25. Default                                  : Yes
  26. Forced                                   : No
  27. Statistics Tags Issue                    : no_variable_data 1970-01-01 00:00:00 / no_variable_data 2010-02-22 21:41:29
  28. FromStats_BitRate                        : 5954175
  29. FromStats_Duration                       : 01:44:44.904000000
  30. FromStats_FrameCount                     : 150687
  31. FromStats_StreamSize                     : 4677677320

  32. Audio
  33. ID                                       : 2
  34. Format                                   : DTS
  35. Format/Info                              : Digital Theater Systems
  36. Codec ID                                 : A_DTS
  37. Duration                                 : 1 h 44 min
  38. Bit rate mode                            : Constant
  39. Bit rate                                 : 1 509 kb/s
  40. Channel(s)                               : 6 channels
  41. Channel layout                           : C L R Ls Rs LFE
  42. Sampling rate                            : 48.0 kHz
  43. Frame rate                               : 93.750 FPS (512 SPF)
  44. Bit depth                                : 24 bits
  45. Compression mode                         : Lossy
  46. Stream size                              : 1.10 GiB (20%)
  47. Language                                 : English
  48. Default                                  : Yes
  49. Forced                                   : No
  50. Statistics Tags Issue                    : no_variable_data 1970-01-01 00:00:00 / no_variable_data 2010-02-22 21:41:29
  51. FromStats_BitRate                        : 1508999
  52. FromStats_Duration                       : 01:44:44.299000000
  53. FromStats_FrameCount                     : 589153
  54. FromStats_StreamSize                     : 1185375836

  55. Text #1
  56. ID                                       : 3
  57. Format                                   : UTF-8
  58. Codec ID                                 : S_TEXT/UTF8
  59. Codec ID/Info                            : UTF-8 Plain Text
  60. Language                                 : English
  61. Default                                  : No
  62. Forced                                   : No
  63. Statistics Tags Issue                    : no_variable_data 1970-01-01 00:00:00 / no_variable_data 2010-02-22 21:41:29
  64. FromStats_BitRate                        : 75
  65. FromStats_Duration                       : 01:43:36.627000000
  66. FromStats_FrameCount                     : 1591
  67. FromStats_StreamSize                     : 58492

  68. Text #2
  69. ID                                       : 4
  70. Format                                   : UTF-8
  71. Codec ID                                 : S_TEXT/UTF8
  72. Codec ID/Info                            : UTF-8 Plain Text
  73. Title                                    : SDH
  74. Language                                 : English
  75. Default                                  : No
  76. Forced                                   : No
  77. Statistics Tags Issue                    : no_variable_data 1970-01-01 00:00:00 / no_variable_data 2010-02-22 21:41:29
  78. FromStats_BitRate                        : 79
  79. FromStats_Duration                       : 01:44:16.751000000
  80. FromStats_FrameCount                     : 1751
  81. FromStats_StreamSize                     : 62223

  82. Menu
  83. 00:00:00.000                             : en:Chapter 01
  84. 00:10:00.600                             : en:Chapter 02
  85. 00:20:01.200                             : en:Chapter 03
  86. 00:30:01.800                             : en:Chapter 04
  87. 00:39:45.383                             : en:Chapter 05
  88. 00:50:03.000                             : en:Chapter 06
  89. 01:00:03.600                             : en:Chapter 07
  90. 01:10:04.200                             : en:Chapter 08
  91. 01:20:04.800                             : en:Chapter 09
  92. 01:30:05.400                             : en:Chapter 10
  93. 01:40:06.000                             : en:Chapter 11
复制代码




                                       
                                       

                                       
                                       
                                       




回复

使用道具 举报

懒得打字嘛,点击右侧快捷回复 【右侧内容,后台自定义】
您需要登录后才可以回帖 登录 | 立即加入

本版积分规则

Archiver|小黑屋| 蓝光电影网 |网站地图

Copyright © 2021 Comsenz Inc. Powered by 蓝光电影网

蓝光电影网

本站内容由用户自主分享和转载自互联网,转载目的在于传递更多信息,并不代表本网赞同其观点和对其真实性负责。

如有侵权、违反国家法律政策行为,请联系我们,我们会第一时间及时清除和处理!

举报反馈邮箱:[email protected]

快速回复 返回顶部 返回列表