找回密码

蓝光电影网

查看: 19|回复: 0

[惊悚] 摄氏度/低温 Centigrade.2020.PROPER.720p.BluRay.x264-PiGNUS 1.69GB

[复制链接]
蓝光币
426
发表于 2021-3-6 08:33:58 | 显示全部楼层 |阅读模式


◎译  名 摄氏度/高温/极寒求生
◎片  名 Centigrade
◎年  代 2020
◎产  地 美国
◎类  别 惊悚
◎语  言 英语
◎上映日期 2020-08-28(美国)
◎IMDb评分  4.3/10 from 1866 users
◎IMDb链接  https://www.imdb.com/title/tt8945942/
◎豆瓣评分 4.1/10 from 634 users
◎豆瓣链接 https://movie.douban.com/subject/35155954/
◎片  长 127分钟
◎导  演 布伦丹·沃尔什 Brendan Walsh
◎编  剧 布伦丹·沃尔什 Brendan Walsh
◎主  演 珍尼希斯·罗德里格兹 Genesis Rodriguez
       文森特·皮亚扎 Vincent Piazza
◎标  签 美国 | 2020 | 狂风雪 | 灾难 | 剧情 | 惊悚 | 超级烂片 | 美国电影
◎简  介


  一对年轻的美国佳耦去挪威的山区观光。为避开狂风雪他们靠边停车后闭眼休息,当他们醒来时发现他们和车一路被埋在了冰雪之下。妻子已经怀孕八个月,卑劣的天气形成温度还在敏捷下降,缺少食品的他们必须一路尽力匹敌高温顺失望。
  1. Video
  2. ID                                       : 1
  3. Format                                   : AVC
  4. Format/Info                              : Advanced Video Codec
  5. Format profile                           : [email protected]
  6. Format settings                          : CABAC / 8 Ref Frames
  7. Format settings, CABAC                   : Yes
  8. Format settings, Reference frames        : 8 frames
  9. Codec ID                                 : V_MPEG4/ISO/AVC
  10. Duration                                 : 1 h 29 min
  11. Bit rate                                 : 2 056 kb/s
  12. Width                                    : 1 280 pixels
  13. Height                                   : 536 pixels
  14. Display aspect ratio                     : 2.40:1
  15. Frame rate mode                          : Constant
  16. Frame rate                               : 23.976 (24000/1001/189150) FPS
  17. Color space                              : YUV
  18. Chroma subsampling                       : 4:2:0
  19. Bit depth                                : 8 bits
  20. Scan type                                : Progressive
  21. Bits/(Pixel*Frame)                       : 0.125
  22. Stream size                              : 1.28 GiB (76%)
  23. Writing library                          : x264 core 161 r3048 b86ae3c
  24. Encoding settings                        : cabac=1 / ref=8 / deblock=1:-3:-3 / analyse=0x3:0x133 / me=umh / subme=9 / psy=1 / psy_rd=1.00:0.00 / mixed_ref=1 / me_range=16 / chroma_me=1 / trellis=2 / 8x8dct=1 / cqm=0 / deadzone=21,11 / fast_pskip=1 / chroma_qp_offset=-2 / threads=17 / lookahead_threads=1 / sliced_threads=0 / nr=0 / decimate=1 / interlaced=0 / bluray_compat=0 / constrained_intra=0 / bframes=3 / b_pyramid=2 / b_adapt=2 / b_bias=0 / direct=3 / weightb=1 / open_gop=0 / weightp=2 / keyint=250 / keyint_min=23 / scenecut=40 / intra_refresh=0 / rc_lookahead=60 / rc=crf / mbtree=1 / crf=14.5 / qcomp=0.60 / qpmin=0 / qpmax=69 / qpstep=4 / ip_ratio=1.40 / aq=1:1.00
  25. Default                                  : Yes
  26. Forced                                   : No

  27. Audio
  28. ID                                       : 2
  29. Format                                   : AC-3
  30. Format/Info                              : Audio Coding 3
  31. Commercial name                          : Dolby Digital
  32. Codec ID                                 : A_AC3
  33. Duration                                 : 1 h 29 min
  34. Bit rate mode                            : Constant
  35. Bit rate                                 : 640 kb/s
  36. Channel(s)                               : 6 channels
  37. Channel layout                           : L R C LFE Ls Rs
  38. Sampling rate                            : 48.0 kHz
  39. Frame rate                               : 31.250 FPS (1536 SPF)
  40. Compression mode                         : Lossy
  41. Stream size                              : 408 MiB (24%)
  42. Language                                 : English
  43. Service kind                             : Complete Main
  44. Default                                  : Yes
  45. Forced                                   : No

  46. Text #1
  47. ID                                       : 3
  48. Format                                   : PGS
  49. Muxing mode                              : zlib
  50. Codec ID                                 : S_HDMV/PGS
  51. Codec ID/Info                            : Picture based subtitle format used on BDs/HD-DVDs
  52. Duration                                 : 1 h 27 min
  53. Bit rate                                 : 12.6 kb/s
  54. Count of elements                        : 1077
  55. Stream size                              : 7.89 MiB (0%)
  56. Title                                    : English SDH
  57. Language                                 : English
  58. Default                                  : No
  59. Forced                                   : No

  60. Text #2
  61. ID                                       : 4
  62. Format                                   : PGS
  63. Muxing mode                              : zlib
  64. Codec ID                                 : S_HDMV/PGS
  65. Codec ID/Info                            : Picture based subtitle format used on BDs/HD-DVDs
  66. Duration                                 : 1 h 24 min
  67. Bit rate                                 : 11.4 kb/s
  68. Count of elements                        : 875
  69. Stream size                              : 6.93 MiB (0%)
  70. Title                                    : Spanish
  71. Language                                 : Spanish
  72. Default                                  : No
  73. Forced                                   : No

  74. Menu
  75. 00:00:00.000                             : en:Chapter 01
  76. 00:09:48.296                             : en:Chapter 02
  77. 00:19:37.760                             : en:Chapter 03
  78. 00:28:21.158                             : en:Chapter 04
  79. 00:34:39.202                             : en:Chapter 05
  80. 00:41:29.153                             : en:Chapter 06
  81. 00:51:36.635                             : en:Chapter 07
  82. 00:59:55.884                             : en:Chapter 08
  83. 01:08:14.882                             : en:Chapter 09
  84. 01:14:19.038                             : en:Chapter 10
  85. 01:19:05.658                             : en:Chapter 11
  86. 01:24:52.504                             : en:Chapter 12
  87. 01:29:09.344                             : en:Chapter 13
复制代码




                                       
                                       

                                       
                                       
                                       




回复

使用道具 举报

懒得打字嘛,点击右侧快捷回复 【右侧内容,后台自定义】
您需要登录后才可以回帖 登录 | 立即加入

本版积分规则

Archiver|小黑屋| 蓝光电影网 |网站地图

Copyright © 2021 Comsenz Inc. Powered by 蓝光电影网

蓝光电影网

本站内容由用户自主分享和转载自互联网,转载目的在于传递更多信息,并不代表本网赞同其观点和对其真实性负责。

如有侵权、违反国家法律政策行为,请联系我们,我们会第一时间及时清除和处理!

举报反馈邮箱:[email protected]

快速回复 返回顶部 返回列表