找回密码

蓝光电影网

查看: 28|回复: 0

[动作] 扎克·施奈德版正义联盟 Zack.Snyders.Justice.League.2021.1080p.BluRay.x264-SURCODE 23.27GB

[复制链接]
蓝光币
382
发表于 2021-5-28 16:24:09 | 显示全部楼层 |阅读模式
[img][/img]

◎译  名 扎克·施奈德版正义同盟/Justice League Snyder Cut/查克·史奈德之正义同盟(台)/正义同盟 扎克·施奈德导演剪辑版/正义同盟:扎克·施耐德版/正义同盟导演剪辑版
◎片  名 Zack Snyder's Justice League
◎年  代 2021
◎产  地 美国
◎类  别 行动 / 科幻 / 奇异 / 冒险
◎语  言 英语
◎上映日期 2021-03-18(美国) / 2021-05-03(中国大陆收集)
◎豆瓣评分 8.3/10 from 191513 users
◎豆瓣链接 https://movie.douban.com/subject/35076714/
◎片  长 242分钟
◎导  演 扎克·施奈德 Zack Snyder
◎编  剧 扎克·施奈德 Zack Snyder / 克里斯·特里奥 Chris Terrio / 威尔·比尔 Will Beall / 杰里·西格尔 Jerry Siegel / 乔·舒斯特 Joe Shuster
◎主  演 本·阿弗莱克 Ben Affleck
       亨利·卡维尔 Henry Cavill
       盖尔·加朵 Gal Gadot
       杰森·莫玛 Jason Momoa
       埃兹拉·米勒 Ezra Miller
       雷·费舍尔 Ray Fisher
       艾米·亚当斯 Amy Adams
       威廉·达福 Willem Dafoe
       杰西·艾森伯格 Jesse Eisenberg
       杰瑞米·艾恩斯 Jeremy Irons
       戴安·琳恩 Diane Lane
       康妮·尼尔森 Connie Nielsen
       J·K·西蒙斯 J.K. Simmons
       塞伦·希德 Ciarán Hinds
       郑恺 Kai Zheng
       艾梅柏·希尔德 Amber Heard
       乔·莫顿 Joe Morton
       丽莎·洛文·孔斯利 Lisa Loven Kongsli
       大卫·休里斯 David Thewlis
       安·奥戈博莫 Ann Ogbomo
       奥古斯塔·艾娃·艾伦德斯杜提尔 ágústa Eva Erlendsdóttir
       克里斯特比约格·凯尔德 Kristbj?rg Kjeld
       英格瓦·埃盖特·西古德松 Ingvar Eggert Siguresson
       马克·麦克卢尔 Marc McClure
       迈克尔·麦克埃尔哈顿 Michael McElhatton
       约翰·达格尔什 John Dagleish
       拉腊·德坎罗 Lara Decaro
       罗比·基 Robbie Gee
       吉姆·斯图格恩 Jim Sturgeon
       杜晨·科洛斯 Doutzen Kroes
       埃莉诺·松浦 Eleanor Matsuura
       萨曼莎·乔 Samantha Win
       布鲁克恩斯 Brooke Ence
       杰罗姆·普拉顿 Jér?me Pradon
       理查德·克里弗特 Richard Clifford
       文森特·里奥特 Vincent Riotta
       马克·阿诺德 Mark Arnold
       彼得·吉尼斯 Peter Guinness
       赛吉·康斯坦斯 Sergi Constance
       奥萝尔·劳泽瑞尔 Aurore Lauzeral
       朱利安·刘易斯·琼斯 Julian Lewis Jones
       雷·波特 Ray Porter
       弗朗西斯·麦基 Francis Magee
       科雷西·克莱门斯 Kiersey Clemons
       露西·布莱尔斯 Lucy Briers
       威尔·柯班 Wil Coban
       凯伦·布莱森 Karen Bryson
       克里斯蒂·梅尔 Christy Meyer
       吉安皮罗·科格诺利 Gianpiero Cognoli
       寇布勒·霍尔德布鲁克-史姑娘 Kobna Holdbrook-Smith
       凯文·马图林 Kevin Mathurin
       泰勒·詹姆斯 Taylor James
       布鲁斯·钟 Bruce Chong
       奥赖恩·李 Orion Lee
       奥利弗·加茨 Oliver Gatz
       凯莉·波尔克 Kelly Burke
       奥利弗·鲍威尔 Oliver Powell
       哈里·伦尼克斯 Harry Lennix
       欧米·罗斯 Omri Rose
       萨姆·本杰明 Sam Benjamin
       卡拉·古奇诺 Carla Gugino
       罗素·克劳 Russell Crowe
       扎克·施奈德 Zack Snyder
       杰瑞德·莱托 Jared Leto
       罗宾·怀特 Robin Wright
       比利·克鲁德普 Billy Crudup
       乔·曼根尼罗 Joe Manganiello
       斯沃里·拉格纳内 Swaylee Loughnane
       安德鲁·G·奥格尔比 Andrew G. Ogleby
       山姆·威克斯 Sam Weeks
       Salóme Gunnarsdóttir
◎标  签 DC | 正义同盟 | 扎克施奈德 | 导演剪辑版 | 科幻 | 2021 | 漫画改编 | 美国
◎简  介


  布鲁斯·韦恩(本·阿弗莱克饰)为了确保不让超人(亨利·卡维尔饰)白白牺牲,他决议与戴安娜·普林斯(盖尔·加朵饰)联手并计划招募一支超才能者团队来庇护天下免遭行将到来的灾难性威胁。但这项使命比布鲁斯设想中要困难,由于每位成员都必须面临并跨越自己曩昔的心魔,团结起来,终极构成一个史无前例的豪杰同盟。 蝙蝠侠、奇异女侠、海王(杰森·莫玛饰)、钢骨(雷·费舍饰)、闪电侠(埃兹拉·米勒饰)现在必须结合起来,否则就没法阻止荒原狼(塞伦·希德饰)、狄萨德(彼得·吉尼斯饰)以及达克赛德(雷·波特饰)扑灭地球的可怕计划。
  1. Video
  2. ID                                       : 1
  3. Format                                   : AVC
  4. Format/Info                              : Advanced Video Codec
  5. Format profile                           : [email protected]
  6. Format settings                          : CABAC / 5 Ref Frames
  7. Format settings, CABAC                   : Yes
  8. Format settings, Reference frames        : 5 frames
  9. Codec ID                                 : V_MPEG4/ISO/AVC
  10. Duration                                 : 4 h 2 min
  11. Bit rate                                 : 12.2 Mb/s
  12. Width                                    : 1 440 pixels
  13. Height                                   : 1 080 pixels
  14. Display aspect ratio                     : 4:3
  15. Frame rate mode                          : Constant
  16. Frame rate                               : 23.976 (24000/1001/189150) FPS
  17. Color space                              : YUV
  18. Chroma subsampling                       : 4:2:0
  19. Bit depth                                : 8 bits
  20. Scan type                                : Progressive
  21. Bits/(Pixel*Frame)                       : 0.328
  22. Stream size                              : 20.7 GiB (89%)
  23. Writing library                          : x264 core 163 r3059 b684ebe
  24. Encoding settings                        : cabac=1 / ref=5 / deblock=1:-3:-3 / analyse=0x3:0x133 / me=umh / subme=9 / psy=1 / psy_rd=1.00:0.00 / mixed_ref=1 / me_range=16 / chroma_me=1 / trellis=2 / 8x8dct=1 / cqm=0 / deadzone=21,11 / fast_pskip=0 / chroma_qp_offset=-2 / threads=34 / lookahead_threads=2 / sliced_threads=0 / nr=0 / decimate=1 / interlaced=0 / bluray_compat=0 / constrained_intra=0 / bframes=3 / b_pyramid=2 / b_adapt=2 / b_bias=0 / direct=3 / weightb=1 / open_gop=0 / weightp=2 / keyint=250 / keyint_min=23 / scenecut=40 / intra_refresh=0 / rc_lookahead=60 / rc=crf / mbtree=1 / crf=17.0 / qcomp=0.60 / qpmin=0 / qpmax=69 / qpstep=4 / ip_ratio=1.40 / aq=1:1.00
  25. Language                                 : English
  26. Default                                  : Yes
  27. Forced                                   : No

  28. Audio
  29. ID                                       : 2
  30. Format                                   : E-AC-3 JOC
  31. Format/Info                              : Enhanced AC-3 with Joint Object Coding
  32. Commercial name                          : Dolby Digital Plus with Dolby Atmos
  33. Format profile                           : Blu-ray Disc
  34. Codec ID                                 : A_EAC3
  35. Duration                                 : 4 h 2 min
  36. Bit rate mode                            : Constant
  37. Bit rate                                 : 1 512 kb/s
  38. Channel(s)                               : 8 channels
  39. Channel layout                           : L R C LFE Ls Rs Tfl Tfr
  40. Sampling rate                            : 48.0 kHz
  41. Frame rate                               : 31.250 FPS (1536 SPF)
  42. Compression mode                         : Lossy
  43. Stream size                              : 2.56 GiB (11%)
  44. Language                                 : English
  45. Service kind                             : Complete Main
  46. Default                                  : Yes
  47. Forced                                   : No
  48. Complexity index                         : 16
  49. Number of dynamic objects                : 15
  50. Bed channel count                        : 1 channel
  51. Bed channel configuration                : LFE

  52. Text #1
  53. ID                                       : 3
  54. Format                                   : PGS
  55. Muxing mode                              : zlib
  56. Codec ID                                 : S_HDMV/PGS
  57. Codec ID/Info                            : Picture based subtitle format used on BDs/HD-DVDs
  58. Duration                                 : 4 h 0 min
  59. Bit rate                                 : 25.8 kb/s
  60. Count of elements                        : 5558
  61. Stream size                              : 44.3 MiB (0%)
  62. Language                                 : English
  63. Default                                  : No
  64. Forced                                   : No

  65. Text #2
  66. ID                                       : 4
  67. Format                                   : PGS
  68. Muxing mode                              : zlib
  69. Codec ID                                 : S_HDMV/PGS
  70. Codec ID/Info                            : Picture based subtitle format used on BDs/HD-DVDs
  71. Duration                                 : 3 h 53 min
  72. Bit rate                                 : 27.7 kb/s
  73. Count of elements                        : 4396
  74. Stream size                              : 46.2 MiB (0%)
  75. Language                                 : German
  76. Default                                  : No
  77. Forced                                   : No

  78. Text #3
  79. ID                                       : 5
  80. Format                                   : PGS
  81. Muxing mode                              : zlib
  82. Codec ID                                 : S_HDMV/PGS
  83. Codec ID/Info                            : Picture based subtitle format used on BDs/HD-DVDs
  84. Duration                                 : 3 h 44 min
  85. Bit rate                                 : 159 b/s
  86. Count of elements                        : 42
  87. Stream size                              : 263 KiB (0%)
  88. Language                                 : German
  89. Default                                  : No
  90. Forced                                   : No

  91. Menu
  92. 00:00:00.000                             : en:Chapter
  93. 00:08:55.034                             : en:Chapter
  94. 00:19:56.737                             : en:Chapter
  95. 00:36:54.712                             : en:Chapter
  96. 00:41:32.031                             : en:Chapter
  97. 00:50:18.640                             : en:Chapter
  98. 00:58:42.644                             : en:Chapter
  99. 01:08:35.694                             : en:Chapter
  100. 01:20:27.823                             : en:Chapter
  101. 01:30:05.316                             : en:Chapter
  102. 01:40:28.605                             : en:Chapter
  103. 01:51:24.177                             : en:Chapter
  104. 01:59:06.931                             : en:Chapter
  105. 02:07:56.293                             : en:Chapter
  106. 02:21:58.546                             : en:Chapter
  107. 02:29:50.142                             : en:Chapter
  108. 02:37:27.307                             : en:Chapter
  109. 02:48:36.392                             : en:Chapter
  110. 02:53:19.716                             : en:Chapter
  111. 03:09:54.127                             : en:Chapter
  112. 03:21:28.987                             : en:Chapter
  113. 03:34:12.500                             : en:Chapter
  114. 03:40:10.066                             : en:Chapter
  115. 03:50:47.494                             : en:Chapter
复制代码




                                       
                                       

                                       
                                       
                                       




回复

使用道具 举报

懒得打字嘛,点击右侧快捷回复 【右侧内容,后台自定义】
您需要登录后才可以回帖 登录 | 立即加入

本版积分规则

Archiver|小黑屋| 蓝光电影网 |网站地图

Copyright © 2021 Comsenz Inc. Powered by 蓝光电影网

蓝光电影网

本站内容由用户自主分享和转载自互联网,转载目的在于传递更多信息,并不代表本网赞同其观点和对其真实性负责。

如有侵权、违反国家法律政策行为,请联系我们,我们会第一时间及时清除和处理!

举报反馈邮箱:[email protected]

快速回复 返回顶部 返回列表