找回密码

蓝光电影网

查看: 14|回复: 0

[喜剧] 美容店/哈啦美发店 Beauty.Shop.2005.720p.BluRay.x264-PSYCHD 6.58GB

[复制链接]
蓝光币
386
发表于 2019-10-12 01:58:39 | 显示全部楼层 |阅读模式


◎译  名 美容店 / 哈啦美发店 / 哈拉美容院
◎片  名 Beauty Shop
◎年  代 2005
◎产  地 美国
◎类  别 笑剧
◎语  言 英语
◎上映日期 2005-03-30
◎IMDb评分  5.5/10 from 15451 users
◎IMDb链接  https://www.imdb.com/title/tt0388500
◎豆瓣评分 6.4/10 from 490 users
◎豆瓣链接 https://movie.douban.com/subject/1309041/
◎片  长 105 分钟
◎导  演 比勒·沃道夫 Bille Woodruff
◎编  剧 Kate Lanier / Norman Vance Jr.
◎主  演 Queen Latifah
       Alicia Silverstone
       Andie MacDowell
       Alfre Woodard
       Mena Suvari
       Kevin Bacon

◎标  签 笑剧 | 美国 | 励志 | 美国电影 | 2005 | QueenLatifah | 电影 | comedy
◎简  介  
  吉娜(奎恩·拉提法 Queen Latifah 饰)是一位身手精湛的美容师,分开了芝加哥,她带着女儿瓦尼萨(Paige Hurd 饰)千里迢迢来到了亚特兰大,瓦尼萨将要进入那边的音乐黉舍就读。在亚特兰大,吉娜重操旧业,来到一间美容沙龙中成为了美发师,虽然支出颇丰,但老板乔治(凯文·贝肯 Kevin Bacon 饰)却是个本性怪僻的汉子,经常找吉娜的麻烦。
  在无数次被乔治羞辱刁难后,吉娜决议告退,开一间属于自己的美容店,但是这件工作说来简单理论起来却困难重重。幸亏吉娜具有过人的聪明和过硬的技术,随着时候的推移,她的美容店渐渐走上了正轨,有了一批忠厚的顾客。与此同时,吉娜和修理工乔(杰曼·翰苏 Djimon Hounsou 饰)之间亦擦出了恋爱的火花。
  1. Video
  2. ID                                       : 1
  3. Format                                   : AVC
  4. Format/Info                              : Advanced Video Codec
  5. Format profile                           : [email protected]
  6. Format settings                          : CABAC / 5 Ref Frames
  7. Format settings, CABAC                   : Yes
  8. Format settings, Reference frames        : 5 frames
  9. Codec ID                                 : V_MPEG4/ISO/AVC
  10. Duration                                 : 1 h 45 min
  11. Bit rate                                 : 7 400 kb/s
  12. Width                                    : 1 280 pixels
  13. Height                                   : 544 pixels
  14. Display aspect ratio                     : 2.35:1
  15. Frame rate mode                          : Constant
  16. Frame rate                               : 23.976 (24000/1001) FPS
  17. Color space                              : YUV
  18. Chroma subsampling                       : 4:2:0
  19. Bit depth                                : 8 bits
  20. Scan type                                : Progressive
  21. Bits/(Pixel*Frame)                       : 0.443
  22. Stream size                              : 5.32 GiB (81%)
  23. Writing library                          : x264 core 158 r2984 3759fcb
  24. Encoding settings                        : cabac=1 / ref=5 / deblock=1:-3:-3 / analyse=0x3:0x113 / me=umh / subme=8 / psy=1 / psy_rd=1.05:0.00 / mixed_ref=1 / me_range=24 / chroma_me=1 / trellis=2 / 8x8dct=1 / cqm=0 / deadzone=21,11 / fast_pskip=1 / chroma_qp_offset=-2 / threads=17 / lookahead_threads=2 / sliced_threads=0 / nr=0 / decimate=1 / interlaced=0 / bluray_compat=0 / constrained_intra=0 / bframes=3 / b_pyramid=2 / b_adapt=2 / b_bias=0 / direct=3 / weightb=1 / open_gop=0 / weightp=2 / keyint=240 / keyint_min=24 / scenecut=40 / intra_refresh=0 / rc_lookahead=50 / rc=2pass / mbtree=1 / bitrate=7400 / ratetol=1.0 / qcomp=0.60 / qpmin=0 / qpmax=69 / qpstep=4 / cplxblur=20.0 / qblur=0.5 / ip_ratio=1.40 / aq=3:0.70
  25. Default                                  : Yes
  26. Forced                                   : No
  27. Statistics Tags Issue                    : no_variable_data 1970-01-01 00:00:00 / no_variable_data 2010-02-22 21:41:29
  28. FromStats_BitRate                        : 7399380
  29. FromStats_Duration                       : 01:45:22.149000000
  30. FromStats_FrameCount                     : 151580
  31. FromStats_StreamSize                     : 5847498203

  32. Audio
  33. ID                                       : 2
  34. Format                                   : DTS
  35. Format/Info                              : Digital Theater Systems
  36. Codec ID                                 : A_DTS
  37. Duration                                 : 1 h 45 min
  38. Bit rate mode                            : Constant
  39. Bit rate                                 : 1 509 kb/s
  40. Channel(s)                               : 6 channels
  41. Channel layout                           : C L R Ls Rs LFE
  42. Sampling rate                            : 48.0 kHz
  43. Frame rate                               : 93.750 FPS (512 SPF)
  44. Bit depth                                : 24 bits
  45. Compression mode                         : Lossy
  46. Stream size                              : 1.11 GiB (17%)
  47. Language                                 : English
  48. Default                                  : Yes
  49. Forced                                   : No
  50. Statistics Tags Issue                    : no_variable_data 1970-01-01 00:00:00 / no_variable_data 2010-02-22 21:41:29
  51. FromStats_BitRate                        : 1509000
  52. FromStats_Duration                       : 01:45:22.112000000
  53. FromStats_FrameCount                     : 592698
  54. FromStats_StreamSize                     : 1192508376

  55. Text #1
  56. ID                                       : 3
  57. Format                                   : UTF-8
  58. Codec ID                                 : S_TEXT/UTF8
  59. Codec ID/Info                            : UTF-8 Plain Text
  60. Language                                 : English
  61. Default                                  : No
  62. Forced                                   : No
  63. Statistics Tags Issue                    : no_variable_data 1970-01-01 00:00:00 / no_variable_data 2010-02-22 21:41:29
  64. FromStats_BitRate                        : 89
  65. FromStats_Duration                       : 01:40:41.411000000
  66. FromStats_FrameCount                     : 1684
  67. FromStats_StreamSize                     : 67744

  68. Text #2
  69. ID                                       : 4
  70. Format                                   : UTF-8
  71. Codec ID                                 : S_TEXT/UTF8
  72. Codec ID/Info                            : UTF-8 Plain Text
  73. Title                                    : SDH
  74. Language                                 : English
  75. Default                                  : No
  76. Forced                                   : No
  77. Statistics Tags Issue                    : no_variable_data 1970-01-01 00:00:00 / no_variable_data 2010-02-22 21:41:29
  78. FromStats_BitRate                        : 83
  79. FromStats_Duration                       : 01:41:00.513000000
  80. FromStats_FrameCount                     : 1348
  81. FromStats_StreamSize                     : 63420

  82. Text #3
  83. ID                                       : 5
  84. Format                                   : UTF-8
  85. Codec ID                                 : S_TEXT/UTF8
  86. Codec ID/Info                            : UTF-8 Plain Text
  87. Language                                 : English
  88. Default                                  : No
  89. Forced                                   : No
  90. Statistics Tags Issue                    : no_variable_data 1970-01-01 00:00:00 / no_variable_data 2010-02-22 21:41:29
  91. FromStats_BitRate                        : 81
  92. FromStats_Duration                       : 01:41:00.513000000
  93. FromStats_FrameCount                     : 1325
  94. FromStats_StreamSize                     : 61966

  95. Menu
  96. 00:00:00.000                             : en:Chapter 01
  97. 00:07:07.093                             : en:Chapter 02
  98. 00:17:00.770                             : en:Chapter 03
  99. 00:33:05.150                             : en:Chapter 04
  100. 00:40:58.373                             : en:Chapter 05
  101. 00:49:28.174                             : en:Chapter 06
  102. 00:55:42.840                             : en:Chapter 07
  103. 01:07:24.457                             : en:Chapter 08
  104. 01:17:43.909                             : en:Chapter 09
  105. 01:26:59.631                             : en:Chapter 10
  106. 01:35:42.946                             : en:Chapter 11
  107. 01:41:11.315                             : en:Chapter 12
复制代码




                                       
                                       

                                       
                                       
                                       




回复

使用道具 举报

懒得打字嘛,点击右侧快捷回复 【右侧内容,后台自定义】
您需要登录后才可以回帖 登录 | 立即加入

本版积分规则

Archiver|小黑屋| 蓝光电影网 |网站地图

Copyright © 2021 Comsenz Inc. Powered by 蓝光电影网

蓝光电影网

本站内容由用户自主分享和转载自互联网,转载目的在于传递更多信息,并不代表本网赞同其观点和对其真实性负责。

如有侵权、违反国家法律政策行为,请联系我们,我们会第一时间及时清除和处理!

举报反馈邮箱:[email protected]

快速回复 返回顶部 返回列表