找回密码

蓝光电影网

查看: 25|回复: 0

[恐怖] 着魔 Ritual.2002.1080p.BluRay.x264.DD2.0-MaG 7.66GB

[复制链接]
蓝光币
511
发表于 2021-1-11 09:18:20 | 显示全部楼层 |阅读模式
[img][/img]

◎译  名 着魔
◎片  名 Ritual
◎年  代 2002
◎产  地 美国
◎类  别 可骇
◎语  言 英语
◎上映日期 2002-10-16
◎IMDb评分  4.8/10 from 1656 users
◎IMDb链接  https://www.imdb.com/title/tt0250698/
◎豆瓣评分 /10 from 0 users
◎豆瓣链接 https://movie.douban.com/subject/1305795/
◎片  长 99分钟
◎导  演 阿维·耐舍 Avi Nesher
◎编  剧 罗伯·科恩 Rob Cohen / 阿维·耐舍 Avi Nesher / Inez Wallace / 阿德尔·雷 Ardel Wray / 科特· 西奥德梅克 Curt Siodmak
◎主  演 詹妮弗·格雷 Jennifer Grey
       克莱格·谢佛 Craig Sheffer
       丹尼尔·莱派恩 Daniel Lapaine
       罗恩·泰勒 Ron Taylor
       艾瑞克·阿瓦利 Erick Avari
       斯蒂芬·托布罗斯基 Stephen Tobolowsky
       克里丝滕·威尔逊 Kristen Wilson
       约翰·卡西尔 John Kassir
       加布里埃尔·卡塞斯 Gabriel Casseus
       Nahtasha Budhi
       蒂姆·克里 Tim Curry
◎标  签 电影 | 美国 | 可骇 | 电影版 | 法国 | 没看过 | 惊悚 | 少数派
◎简  介


  腫瘤科醫師愛麗絲被一位美國有錢人保羅請到牙買加,為他获得癌症的弟弟衛斯里治療,她一到牙買加,就立即遭到當地特異文化所传染,當地人也告訴她很多關於僵屍附身的故事,雖然她一開始只把這些當成鬼故事在聽,可是她的親身體驗很快就會改變她的想法....
  1. Video
  2. ID                                       : 1
  3. Format                                   : AVC
  4. Format/Info                              : Advanced Video Codec
  5. Format profile                           : [email protected]
  6. Format settings                          : CABAC / 4 Ref Frames
  7. Format settings, CABAC                   : Yes
  8. Format settings, Reference frames        : 4 frames
  9. Codec ID                                 : V_MPEG4/ISO/AVC
  10. Duration                                 : 1 h 46 min
  11. Bit rate                                 : 10.1 Mb/s
  12. Width                                    : 1 918 pixels
  13. Height                                   : 1 080 pixels
  14. Display aspect ratio                     : 16:9
  15. Frame rate mode                          : Constant
  16. Frame rate                               : 23.976 (24000/1001/189150) FPS
  17. Color space                              : YUV
  18. Chroma subsampling                       : 4:2:0
  19. Bit depth                                : 8 bits
  20. Scan type                                : Progressive
  21. Bits/(Pixel*Frame)                       : 0.204
  22. Stream size                              : 7.51 GiB (98%)
  23. Writing library                          : x264 core 157 r2935 545de2f
  24. Encoding settings                        : cabac=1 / ref=4 / deblock=1:-3:-3 / analyse=0x3:0x133 / me=umh / subme=9 / psy=1 / psy_rd=1.00:0.00 / mixed_ref=1 / me_range=32 / chroma_me=1 / trellis=2 / 8x8dct=1 / cqm=0 / deadzone=21,11 / fast_pskip=0 / chroma_qp_offset=-2 / threads=24 / lookahead_threads=4 / sliced_threads=0 / nr=0 / decimate=1 / interlaced=0 / bluray_compat=0 / constrained_intra=0 / bframes=8 / b_pyramid=2 / b_adapt=2 / b_bias=0 / direct=3 / weightb=1 / open_gop=0 / weightp=2 / keyint=240 / keyint_min=24 / scenecut=40 / intra_refresh=0 / rc_lookahead=60 / rc=crf / mbtree=0 / crf=23.0 / qcomp=0.80 / qpmin=0 / qpmax=69 / qpstep=4 / vbv_maxrate=62500 / vbv_bufsize=78125 / crf_max=0.0 / nal_hrd=none / filler=0 / ip_ratio=1.40 / pb_ratio=1.30 / aq=3:1.00
  25. Default                                  : Yes
  26. Forced                                   : No
  27. Color range                              : Limited
  28. Color primaries                          : BT.709
  29. Transfer characteristics                 : BT.709
  30. Matrix coefficients                      : BT.709
  31. Audio
  32. ID                                       : 2
  33. Format                                   : AC-3
  34. Format/Info                              : Audio Coding 3
  35. Commercial name                          : Dolby Digital
  36. Codec ID                                 : A_AC3
  37. Duration                                 : 1 h 46 min
  38. Bit rate mode                            : Constant
  39. Bit rate                                 : 192 kb/s
  40. Channel(s)                               : 2 channels
  41. Channel layout                           : L R
  42. Sampling rate                            : 48.0 kHz
  43. Frame rate                               : 31.250 FPS (1536 SPF)
  44. Compression mode                         : Lossy
  45. Stream size                              : 146 MiB (2%)
  46. Title                                    : DD 2.0 Audio
  47. Language                                 : English
  48. Service kind                             : Complete Main
  49. Default                                  : Yes
  50. Forced                                   : No
  51. Text
  52. ID                                       : 3
  53. Format                                   : UTF-8
  54. Codec ID                                 : S_TEXT/UTF8
  55. Codec ID/Info                            : UTF-8 Plain Text
  56. Duration                                 : 1 h 39 min
  57. Bit rate                                 : 65 b/s
  58. Count of elements                        : 1812
  59. Stream size                              : 48.1 KiB (0%)
  60. Title                                    : SDH (WEB-DL)
  61. Language                                 : English
  62. Default                                  : Yes
  63. Forced                                   : No
  64. Menu
  65. 00:00:00.000                             : :Chapter 1
  66. 00:02:09.043                             : :Chapter 2
  67. 00:10:17.913                             : :Chapter 3
  68. 00:14:53.602                             : :Chapter 4
  69. 00:23:53.100                             : :Chapter 5
  70. 00:29:39.739                             : :Chapter 6
  71. 00:38:56.166                             : :Chapter 7
  72. 00:46:14.312                             : :Chapter 8
  73. 00:50:38.202                             : :Chapter 9
  74. 01:00:26.081                             : :Chapter 10
  75. 01:07:59.372                             : :Chapter 11
  76. 01:21:04.939                             : :Chapter 12
  77. 01:26:50.080                             : :Chapter 13
  78. 01:30:09.118                             : :Chapter 14
  79. 01:38:18.309                             : :Chapter 15
复制代码



                                       
                                       

                                       
                                       
                                       




回复

使用道具 举报

懒得打字嘛,点击右侧快捷回复 【右侧内容,后台自定义】
您需要登录后才可以回帖 登录 | 立即加入

本版积分规则

Archiver|小黑屋| 蓝光电影网 |网站地图

Copyright © 2021 Comsenz Inc. Powered by 蓝光电影网

蓝光电影网

本站内容由用户自主分享和转载自互联网,转载目的在于传递更多信息,并不代表本网赞同其观点和对其真实性负责。

如有侵权、违反国家法律政策行为,请联系我们,我们会第一时间及时清除和处理!

举报反馈邮箱:[email protected]

快速回复 返回顶部 返回列表