找回密码

蓝光电影网

查看: 14|回复: 0

[惊悚] 蹂躏 Swing.Low.2019.720p.BluRay.x264-GUACAMOLE 3.33GB

[复制链接]
蓝光币
382
发表于 2021-3-5 08:46:18 | 显示全部楼层 |阅读模式


◎译  名 践踏/Swing Low
◎片  名 Ravage
◎年  代 2019
◎产  地 美国
◎类  别 惊悚
◎语  言 英语
◎上映日期 
◎IMDb评分  4.9/10 from 877 users
◎IMDb链接  https://www.imdb.com/title/tt8191620/
◎豆瓣评分 /10 from 0 users
◎豆瓣链接 https://movie.douban.com/subject/34839474/
◎片  长 84分钟
◎主  演 布鲁斯·邓恩 Bruce Dern
       安娜贝尔·德克斯特-琼斯 Annabelle Dexter-Jones
       埃里克·尼尔森 Eric Nelsen
       罗伯特·朗斯特里特 Robert Longstreet
       罗斯·帕特里奇 Ross Partridge
       迈克尔·韦弗 Michael Weaver
◎标  签 美国 | 惊悚 | 2019 | 犯罪 | 欧美小妞 | 性奴,反转 | 行动 | [歐美]
◎简  介


  When a nature photographer explains to the Police how she fought her way out of the Watchatoomy Valley, they dismiss her crazed and violent story as a meth-induced nightmare. But when they discover that she's telling the truth, it's too late.
  1. Video
  2. ID                                       : 1
  3. Format                                   : AVC
  4. Format/Info                              : Advanced Video Codec
  5. Format profile                           : [email protected]
  6. Format settings                          : CABAC / 8 Ref Frames
  7. Format settings, CABAC                   : Yes
  8. Format settings, Reference frames        : 8 frames
  9. Codec ID                                 : V_MPEG4/ISO/AVC
  10. Duration                                 : 1 h 24 min
  11. Bit rate                                 : 5 011 kb/s
  12. Width                                    : 1 280 pixels
  13. Height                                   : 536 pixels
  14. Display aspect ratio                     : 2.40:1
  15. Frame rate mode                          : Constant
  16. Frame rate                               : 23.976 (24000/1001/189150) FPS
  17. Color space                              : YUV
  18. Chroma subsampling                       : 4:2:0
  19. Bit depth                                : 8 bits
  20. Scan type                                : Progressive
  21. Bits/(Pixel*Frame)                       : 0.305
  22. Stream size                              : 2.94 GiB (89%)
  23. Writing library                          : x264 core 161 r3048 b86ae3c
  24. Encoding settings                        : cabac=1 / ref=8 / deblock=1:-3:-3 / analyse=0x3:0x133 / me=umh / subme=9 / psy=1 / psy_rd=1.00:0.00 / mixed_ref=1 / me_range=16 / chroma_me=1 / trellis=2 / 8x8dct=1 / cqm=0 / deadzone=21,11 / fast_pskip=0 / chroma_qp_offset=-2 / threads=17 / lookahead_threads=1 / sliced_threads=0 / nr=0 / decimate=1 / interlaced=0 / bluray_compat=0 / constrained_intra=0 / bframes=3 / b_pyramid=2 / b_adapt=2 / b_bias=0 / direct=3 / weightb=1 / open_gop=0 / weightp=2 / keyint=250 / keyint_min=23 / scenecut=40 / intra_refresh=0 / rc_lookahead=60 / rc=crf / mbtree=1 / crf=17.0 / qcomp=0.60 / qpmin=0 / qpmax=69 / qpstep=4 / ip_ratio=1.40 / aq=3:1.00
  25. Default                                  : Yes
  26. Forced                                   : No
  27. Color range                              : Limited
  28. Matrix coefficients                      : BT.709

  29. Audio
  30. ID                                       : 2
  31. Format                                   : AC-3
  32. Format/Info                              : Audio Coding 3
  33. Commercial name                          : Dolby Digital
  34. Codec ID                                 : A_AC3
  35. Duration                                 : 1 h 24 min
  36. Bit rate mode                            : Constant
  37. Bit rate                                 : 640 kb/s
  38. Channel(s)                               : 6 channels
  39. Channel layout                           : L R C LFE Ls Rs
  40. Sampling rate                            : 48.0 kHz
  41. Frame rate                               : 31.250 FPS (1536 SPF)
  42. Compression mode                         : Lossy
  43. Stream size                              : 385 MiB (11%)
  44. Language                                 : English
  45. Service kind                             : Complete Main
  46. Default                                  : Yes
  47. Forced                                   : No

  48. Text #1
  49. ID                                       : 3
  50. Format                                   : PGS
  51. Muxing mode                              : zlib
  52. Codec ID                                 : S_HDMV/PGS
  53. Codec ID/Info                            : Picture based subtitle format used on BDs/HD-DVDs
  54. Duration                                 : 1 h 18 min
  55. Bit rate                                 : 13.8 kb/s
  56. Count of elements                        : 834
  57. Stream size                              : 7.69 MiB (0%)
  58. Title                                    : Vobsubs
  59. Language                                 : German
  60. Default                                  : No
  61. Forced                                   : No

  62. Text #2
  63. ID                                       : 4
  64. Format                                   : PGS
  65. Muxing mode                              : zlib
  66. Codec ID                                 : S_HDMV/PGS
  67. Codec ID/Info                            : Picture based subtitle format used on BDs/HD-DVDs
  68. Duration                                 : 9 min 29 s
  69. Bit rate                                 : 415 b/s
  70. Count of elements                        : 7
  71. Stream size                              : 28.9 KiB (0%)
  72. Title                                    : Forced
  73. Language                                 : German
  74. Default                                  : No
  75. Forced                                   : No

  76. Menu
  77. 00:00:00.000                             : en:00:00:00.000
  78. 00:08:22.293                             : en:00:08:22.293
  79. 00:14:56.687                             : en:00:14:56.687
  80. 00:24:21.543                             : en:00:24:21.543
  81. 00:29:32.938                             : en:00:29:32.938
  82. 00:37:04.222                             : en:00:37:04.222
  83. 00:43:51.879                             : en:00:43:51.879
  84. 00:49:50.779                             : en:00:49:50.779
  85. 00:59:47.292                             : en:00:59:47.292
  86. 01:03:14.624                             : en:01:03:14.624
  87. 01:07:10.151                             : en:01:07:10.151
  88. 01:20:45.883                             : en:01:20:45.883
复制代码




                                       
                                       

                                       
                                       
                                       




回复

使用道具 举报

懒得打字嘛,点击右侧快捷回复 【右侧内容,后台自定义】
您需要登录后才可以回帖 登录 | 立即加入

本版积分规则

Archiver|小黑屋| 蓝光电影网 |网站地图

Copyright © 2021 Comsenz Inc. Powered by 蓝光电影网

蓝光电影网

本站内容由用户自主分享和转载自互联网,转载目的在于传递更多信息,并不代表本网赞同其观点和对其真实性负责。

如有侵权、违反国家法律政策行为,请联系我们,我们会第一时间及时清除和处理!

举报反馈邮箱:[email protected]

快速回复 返回顶部 返回列表