找回密码

蓝光电影网

查看: 17|回复: 0

[动作] 碟中谍 Mission.Impossible.1996.REMASTERED.1080p.BluRay.x264-GAZER 17.15GB

[复制链接]
蓝光币
382
发表于 2021-5-28 08:48:26 | 显示全部楼层 |阅读模式
[img][/img]

◎译  名 碟中谍/M:I/不成能的使命(台)/职业奸细队(港)
◎片  名 Mission: Impossible
◎年  代 1996
◎产  地 美国
◎类  别 行动 / 惊悚 / 冒险
◎语  言 英语,捷克语,乌克兰语,法语
◎上映日期 1996-05-22(美国)
◎豆瓣评分 8.2/10 from 221119 users
◎豆瓣链接 https://movie.douban.com/subject/1292484/
◎片  长 110 分钟
◎导  演 布莱恩·德·帕尔玛 Brian De Palma
◎编  剧 大卫·凯普 David Koepp / 罗伯特·汤 Robert Towne / 斯蒂文·泽里安 Steven Zaillian / 布鲁斯·盖勒 Bruce Geller
◎主  演 汤姆·克鲁斯 Tom Cruise
       强·沃特 Jon Voight
       艾曼纽·贝阿 Emmanuelle Béart
       亨利·科泽尼 Henry Czerny
       让·雷诺 Jean Reno
       文·瑞姆斯 Ving Rhames
       克里斯汀·斯科特·托马斯 Kristin Scott Thomas
       瓦妮莎·雷德格雷夫 Vanessa Redgrave
       茵格保加·达坤耐特 Ingeborga Dapkunaite
       瓦伦蒂娜·雅库尼亚 Valentina Yakunina
       马雷克·瓦苏特 Marek Vasut
       John McLaughlin
       罗尔夫·萨克森 Rolf Saxon
       卡雷尔·多布雷 Karel Dobry
       安德雷斯·魏斯涅夫斯基 Andreas Wisniewski
       Gaston Subert
       里科·罗斯 Ricco Ross
       Bob Friend
       安娜贝尔·穆利恩 Annabel Mullion
       加里克·哈根 Garrick Hagon
       Jirina Trebická
       山姆·道格拉斯 Sam Douglas
       奥莱加·费多罗 Olegar Fedoro
       大卫·施奈德 David Schneider
       海伦·林赛 Helen Lindsay
       兰德尔·保罗 Randall Paul
       迈克尔·罗杰斯 Michael Rogers
       劳拉·布鲁克 Laura Brook
       梅丽莎·纳奇布尔 Melissa Knatchbull
       扬·卡拉米特鲁 Ion Caramitru
       代尔·戴 Dale Dye
       马塞尔·尤勒斯 Marcel Iures
       基思·坎贝尔 Keith Campbell
       艾米利奥·艾斯特维兹 Emilio Estevez
       哈里·弗雷德尔 Harry Fielder
       约翰·诺尔 John Knoll
◎标  签 行动 | 奸细 | 典范 | 美国电影 | 特务 | 汤姆克鲁斯 | 1996 | 悬疑
◎简  介


  中情局获得情报,得知他们的奸细中出了一个叛徒,预备将中情局安插在东欧的奸细名单出售给本国奸细构造。在特领班目吉姆(乔恩?沃伊特 Jon Voight 饰)的策划下,伊森(汤姆?克鲁斯 Tom Cruise 饰)所住的一组奸细赶往了他们买卖的地址。
  
  岂料,当他们按计划赶到 时,却中了匿伏,一组人中除了伊森和吉姆的妻子克莱尔,其他队员都被杀戮。这时,伊森的账户无故端多出了12万美金。伊森成了内鬼的最大的怀疑犯。
  
  无法之下,伊森只能凭小我之力独闯龙潭虎穴去找出出售他们的内奸。他和本国特务构造的讨论人麦克斯获得联系后,答应帮麦克斯偷出中情局的特务名单以交换中情局内鬼的名字。
◎获奖情况
  第20届日本电影学院奖 ?(1997)
  最好外语片(提名)
  1. Video
  2. ID                                       : 1
  3. Format                                   : AVC
  4. Format/Info                              : Advanced Video Codec
  5. Format profile                           : [email protected]
  6. Format settings                          : CABAC / 5 Ref Frames
  7. Format settings, CABAC                   : Yes
  8. Format settings, Reference frames        : 5 frames
  9. Codec ID                                 : V_MPEG4/ISO/AVC
  10. Duration                                 : 1 h 50 min
  11. Bit rate                                 : 18.2 Mb/s
  12. Width                                    : 1 920 pixels
  13. Height                                   : 800 pixels
  14. Display aspect ratio                     : 2.40:1
  15. Frame rate mode                          : Constant
  16. Frame rate                               : 23.976 (24000/1001/189150) FPS
  17. Color space                              : YUV
  18. Chroma subsampling                       : 4:2:0
  19. Bit depth                                : 8 bits
  20. Scan type                                : Progressive
  21. Bits/(Pixel*Frame)                       : 0.494
  22. Stream size                              : 14.0 GiB (82%)
  23. Writing library                          : x264 core 163 r3059 b684ebe
  24. Encoding settings                        : cabac=1 / ref=5 / deblock=1:-3:-3 / analyse=0x3:0x133 / me=umh / subme=10 / psy=1 / psy_rd=1.20:0.00 / mixed_ref=1 / me_range=24 / chroma_me=1 / trellis=2 / 8x8dct=1 / cqm=0 / deadzone=21,11 / fast_pskip=0 / chroma_qp_offset=-2 / threads=24 / lookahead_threads=4 / sliced_threads=0 / nr=0 / decimate=0 / interlaced=0 / bluray_compat=0 / constrained_intra=0 / bframes=8 / b_pyramid=2 / b_adapt=2 / b_bias=0 / direct=3 / weightb=1 / open_gop=0 / weightp=2 / keyint=250 / keyint_min=23 / scenecut=40 / intra_refresh=0 / rc_lookahead=60 / rc=crf / mbtree=1 / crf=18.0 / qcomp=0.60 / qpmin=0 / qpmax=69 / qpstep=4 / ip_ratio=1.40 / aq=3:0.90
  25. Default                                  : Yes
  26. Forced                                   : No
  27. Color range                              : Limited
  28. Matrix coefficients                      : BT.709

  29. Audio #1
  30. ID                                       : 2
  31. Format                                   : MLP FBA
  32. Format/Info                              : Meridian Lossless Packing FBA
  33. Commercial name                          : Dolby TrueHD
  34. Codec ID                                 : A_TRUEHD
  35. Duration                                 : 1 h 50 min
  36. Bit rate mode                            : Variable
  37. Bit rate                                 : 3 366 kb/s
  38. Maximum bit rate                         : 4 890 kb/s
  39. Channel(s)                               : 6 channels
  40. Channel layout                           : L R C LFE Ls Rs
  41. Sampling rate                            : 48.0 kHz
  42. Frame rate                               : 1 200.000 FPS (40 SPF)
  43. Compression mode                         : Lossless
  44. Stream size                              : 2.59 GiB (15%)
  45. Language                                 : English
  46. Default                                  : Yes
  47. Forced                                   : No

  48. Audio #2
  49. ID                                       : 3
  50. Format                                   : AC-3
  51. Format/Info                              : Audio Coding 3
  52. Commercial name                          : Dolby Digital
  53. Codec ID                                 : A_AC3
  54. Duration                                 : 1 h 50 min
  55. Bit rate mode                            : Constant
  56. Bit rate                                 : 640 kb/s
  57. Channel(s)                               : 6 channels
  58. Channel layout                           : L R C LFE Ls Rs
  59. Sampling rate                            : 48.0 kHz
  60. Frame rate                               : 31.250 FPS (1536 SPF)
  61. Compression mode                         : Lossy
  62. Stream size                              : 504 MiB (3%)
  63. Language                                 : English
  64. Service kind                             : Complete Main
  65. Default                                  : No
  66. Forced                                   : No

  67. Text #1
  68. ID                                       : 4
  69. Format                                   : PGS
  70. Muxing mode                              : zlib
  71. Codec ID                                 : S_HDMV/PGS
  72. Codec ID/Info                            : Picture based subtitle format used on BDs/HD-DVDs
  73. Duration                                 : 1 h 45 min
  74. Bit rate                                 : 28.9 kb/s
  75. Count of elements                        : 2209
  76. Stream size                              : 21.8 MiB (0%)
  77. Title                                    : SDH
  78. Language                                 : English
  79. Default                                  : No
  80. Forced                                   : No

  81. Text #2
  82. ID                                       : 5
  83. Format                                   : PGS
  84. Muxing mode                              : zlib
  85. Codec ID                                 : S_HDMV/PGS
  86. Codec ID/Info                            : Picture based subtitle format used on BDs/HD-DVDs
  87. Duration                                 : 1 h 45 min
  88. Bit rate                                 : 25.6 kb/s
  89. Count of elements                        : 1905
  90. Stream size                              : 19.3 MiB (0%)
  91. Language                                 : English
  92. Default                                  : No
  93. Forced                                   : No

  94. Text #3
  95. ID                                       : 6
  96. Format                                   : PGS
  97. Muxing mode                              : zlib
  98. Codec ID                                 : S_HDMV/PGS
  99. Codec ID/Info                            : Picture based subtitle format used on BDs/HD-DVDs
  100. Duration                                 : 1 h 49 min
  101. Bit rate                                 : 25.1 kb/s
  102. Count of elements                        : 2009
  103. Stream size                              : 19.7 MiB (0%)
  104. Language                                 : French
  105. Default                                  : No
  106. Forced                                   : No

  107. Text #4
  108. ID                                       : 7
  109. Format                                   : PGS
  110. Muxing mode                              : zlib
  111. Codec ID                                 : S_HDMV/PGS
  112. Codec ID/Info                            : Picture based subtitle format used on BDs/HD-DVDs
  113. Duration                                 : 1 h 45 min
  114. Bit rate                                 : 25.4 kb/s
  115. Count of elements                        : 2010
  116. Stream size                              : 19.2 MiB (0%)
  117. Language                                 : German
  118. Default                                  : No
  119. Forced                                   : No

  120. Text #5
  121. ID                                       : 8
  122. Format                                   : PGS
  123. Muxing mode                              : zlib
  124. Codec ID                                 : S_HDMV/PGS
  125. Codec ID/Info                            : Picture based subtitle format used on BDs/HD-DVDs
  126. Duration                                 : 1 h 45 min
  127. Bit rate                                 : 17.8 kb/s
  128. Count of elements                        : 1809
  129. Stream size                              : 13.4 MiB (0%)
  130. Language                                 : Japanese
  131. Default                                  : No
  132. Forced                                   : No

  133. Menu
  134. 00:00:00.000                             : en:Chapter 01
  135. 00:03:00.305                             : en:Chapter 02
  136. 00:10:42.559                             : en:Chapter 03
  137. 00:26:43.018                             : en:Chapter 04
  138. 00:32:19.604                             : en:Chapter 05
  139. 00:39:49.637                             : en:Chapter 06
  140. 00:49:38.475                             : en:Chapter 07
  141. 00:55:44.967                             : en:Chapter 08
  142. 01:12:25.049                             : en:Chapter 09
  143. 01:18:33.876                             : en:Chapter 10
  144. 01:28:13.872                             : en:Chapter 11
  145. 01:38:06.047                             : en:Chapter 12
  146. 01:44:02.111                             : en:Chapter 13
复制代码




                                       
                                       

                                       
                                       
                                       




回复

使用道具 举报

懒得打字嘛,点击右侧快捷回复 【右侧内容,后台自定义】
您需要登录后才可以回帖 登录 | 立即加入

本版积分规则

Archiver|小黑屋| 蓝光电影网 |网站地图

Copyright © 2021 Comsenz Inc. Powered by 蓝光电影网

蓝光电影网

本站内容由用户自主分享和转载自互联网,转载目的在于传递更多信息,并不代表本网赞同其观点和对其真实性负责。

如有侵权、违反国家法律政策行为,请联系我们,我们会第一时间及时清除和处理!

举报反馈邮箱:[email protected]

快速回复 返回顶部 返回列表