找回密码

蓝光电影网

查看: 13|回复: 0

[喜剧] 最佳拍档4:千里救差婆 Mad.Mission.4.You.Never.Die.Twice.1986.DUBBED.720p.BluRay.x264-GUACAMOLE 3.28GB

[复制链接]
蓝光币
382
发表于 2019-10-12 01:50:34 | 显示全部楼层 |阅读模式


◎译  名 Aces Go Places IV / Mad Mission IV: You Never Die Twice
◎片  名 最好拍档4:千里救差婆
◎年  代 1986
◎产  地 中国香港
◎类  别 笑剧 / 行动
◎语  言 粤语
◎上映日期 1986-01-30
◎IMDb评分  5.8/10 from 557 users
◎IMDb链接  https://www.imdb.com/title/tt0092268
◎豆瓣评分 6.9/10 from 6430 users
◎豆瓣链接 https://movie.douban.com/subject/1294350/
◎片  长 86 分钟
◎导  演 林岭东
◎编  剧 麦嘉 / 林岭东
◎主  演 许冠杰
       麦嘉
       张艾嘉
       叶倩文
       王嘉明
       石坚
       关德兴
       曹达华
       乔宏

◎标  签 香港 | 笑剧 | 香港电影 | 许冠杰 | 张艾嘉 | 麦嘉 | 1986 | 林岭东
◎简  介  
  纽西兰老科学家发现一个名为“天狼星”的三棱镜,它可将人的潜能激起,构成难以置信的超才能。但这项发现很快被当地一黑社会构造盯上,他们攻击尝试室,杀戮老科学家。危机时辰,天狼星被加入尝试的青年金刚(许冠杰 饰)和科学家的女儿莎莉(叶倩文 饰)带出纽西兰,来到香港。
  返港后,金刚追求侦察光头佬(麦嘉 饰)的帮助,谁知黑帮尾随而至,虏走光头佬的妻子贺警司(张艾嘉 饰)作人质。为救爱妻,光头佬带着儿子,协同金刚赶至纽西兰……
  1. Video
  2. ID                                       : 1
  3. Format                                   : AVC
  4. Format/Info                              : Advanced Video Codec
  5. Format profile                           : [email protected]
  6. Format settings                          : CABAC / 5 Ref Frames
  7. Format settings, CABAC                   : Yes
  8. Format settings, Reference frames        : 5 frames
  9. Codec ID                                 : V_MPEG4/ISO/AVC
  10. Duration                                 : 1 h 38 min
  11. Bit rate                                 : 4 300 kb/s
  12. Width                                    : 1 280 pixels
  13. Height                                   : 536 pixels
  14. Display aspect ratio                     : 2.40:1
  15. Frame rate mode                          : Constant
  16. Frame rate                               : 23.976 (24000/1001) FPS
  17. Color space                              : YUV
  18. Chroma subsampling                       : 4:2:0
  19. Bit depth                                : 8 bits
  20. Scan type                                : Progressive
  21. Bits/(Pixel*Frame)                       : 0.261
  22. Stream size                              : 2.97 GiB (91%)
  23. Writing library                          : x264 core 157 r2969 d4099dd
  24. Encoding settings                        : cabac=1 / ref=5 / deblock=1:0:0 / analyse=0x3:0x113 / me=umh / subme=8 / psy=1 / psy_rd=1.00:0.00 / mixed_ref=1 / me_range=16 / chroma_me=1 / trellis=2 / 8x8dct=1 / cqm=0 / deadzone=21,11 / fast_pskip=0 / chroma_qp_offset=-2 / threads=17 / lookahead_threads=2 / sliced_threads=0 / nr=0 / decimate=1 / interlaced=0 / bluray_compat=0 / constrained_intra=0 / bframes=3 / b_pyramid=2 / b_adapt=1 / b_bias=0 / direct=1 / weightb=1 / open_gop=0 / weightp=2 / keyint=250 / keyint_min=23 / scenecut=40 / intra_refresh=0 / rc_lookahead=50 / rc=2pass / mbtree=1 / bitrate=4300 / ratetol=1.0 / qcomp=0.60 / qpmin=0 / qpmax=69 / qpstep=4 / cplxblur=20.0 / qblur=0.5 / ip_ratio=1.40 / aq=1:1.00
  25. Default                                  : Yes
  26. Forced                                   : No

  27. Audio
  28. ID                                       : 2
  29. Format                                   : AC-3
  30. Format/Info                              : Audio Coding 3
  31. Commercial name                          : Dolby Digital
  32. Codec ID                                 : A_AC3
  33. Duration                                 : 1 h 38 min
  34. Bit rate mode                            : Constant
  35. Bit rate                                 : 448 kb/s
  36. Channel(s)                               : 6 channels
  37. Channel layout                           : L R C LFE Ls Rs
  38. Sampling rate                            : 48.0 kHz
  39. Frame rate                               : 31.250 FPS (1536 SPF)
  40. Bit depth                                : 16 bits
  41. Compression mode                         : Lossy
  42. Stream size                              : 317 MiB (9%)
  43. Language                                 : English
  44. Service kind                             : Complete Main
  45. Default                                  : No
  46. Forced                                   : No

  47. Text
  48. ID                                       : 3
  49. Format                                   : UTF-8
  50. Codec ID                                 : S_TEXT/UTF8
  51. Codec ID/Info                            : UTF-8 Plain Text
  52. Duration                                 : 1 h 31 min
  53. Bit rate                                 : 5 b/s
  54. Count of elements                        : 170
  55. Stream size                              : 3.91 KiB (0%)
  56. Language                                 : English
  57. Default                                  : Yes
  58. Forced                                   : Yes

  59. Menu
  60. 00:00:00.000                             : en:00:00:00.000
  61. 00:00:00.375                             : en:00:00:00.375
  62. 00:15:08.032                             : en:00:15:08.032
  63. 00:31:37.854                             : en:00:31:37.854
  64. 00:44:11.774                             : en:00:44:11.774
  65. 00:58:36.722                             : en:00:58:36.722
  66. 01:14:08.569                             : en:01:14:08.569
  67. 01:29:47.674                             : en:01:29:47.674
  68. 01:35:46.282                             : en:01:35:46.282
复制代码




                                       
                                       

                                       
                                       
                                       




回复

使用道具 举报

懒得打字嘛,点击右侧快捷回复 【右侧内容,后台自定义】
您需要登录后才可以回帖 登录 | 立即加入

本版积分规则

Archiver|小黑屋| 蓝光电影网 |网站地图

Copyright © 2021 Comsenz Inc. Powered by 蓝光电影网

蓝光电影网

本站内容由用户自主分享和转载自互联网,转载目的在于传递更多信息,并不代表本网赞同其观点和对其真实性负责。

如有侵权、违反国家法律政策行为,请联系我们,我们会第一时间及时清除和处理!

举报反馈邮箱:[email protected]

快速回复 返回顶部 返回列表