找回密码

蓝光电影网

查看: 18|回复: 0

[惊悚] 致命女郎/蛇蝎美人 Fatale.2020.720p.BluRay.x264-BLOW 4.55GB

[复制链接]
蓝光币
382
发表于 2021-3-3 20:16:30 | 显示全部楼层 |阅读模式


◎译  名 致命女郎/蛇蝎美人
◎片  名 Fatale
◎年  代 2020
◎产  地 美国
◎类  别 惊悚
◎语  言 英语
◎上映日期 2020-12-18(美国)
◎IMDb评分  5.2/10 from 3197 users
◎IMDb链接  https://www.imdb.com/title/tt8829830/
◎豆瓣评分 5.2/10 from 259 users
◎豆瓣链接 https://movie.douban.com/subject/30382374/
◎片  长 102分钟
◎导  演 德翁·泰勒 Deon Taylor
◎编  剧 戴维·朗格利 David Loughery
◎主  演 希拉里·斯万克 Hilary Swank
       迈克尔·伊雷 Michael Ealy
       迈克·柯尔特 Mike Colter
       卡莉·霍克 Kali Hawk
       丹尼·皮诺 Danny Pino
       达马里斯·刘易斯 Damaris Lewis
       萨姆·戴利 Sam Daly
       杰弗里·欧文斯 Geoffrey Owens
       大卫·霍夫林 David Hoflin
       奥克莉·布尔 Oakley Bull
       达拉斯·钱德勒 Dallas Chandler
       泰里恩·特纳 Tyrin Turner
       朱莉安娜·唐纳德 Juliana Donald
       莱克萨·格鲁克 Lexa Gluck
       丹尼丝·道丝 Denise Dowse
       凯瑞·威斯特科特 Kerry Westcott
       Ian Stanley
       Sasha Golberg
◎标  签 悬疑 | 美国 | 犯罪 | 惊悚 | 2020 | 剧情 | 电影 | Netflix
◎简  介


  影片报告一个成功的体育掮客人达伦(迈克尔·伊雷饰),当他被卷入由一个身份存疑、不知耻辱但行为果断的侦察(希拉里·斯万克饰)带领的警方观察中,他原本的完善生活渐渐消失……
  1. Video
  2. ID                                       : 1
  3. Format                                   : AVC
  4. Format/Info                              : Advanced Video Codec
  5. Format profile                           : [email protected]
  6. Format settings                          : CABAC / 8 Ref Frames
  7. Format settings, CABAC                   : Yes
  8. Format settings, Reference frames        : 8 frames
  9. Codec ID                                 : V_MPEG4/ISO/AVC
  10. Duration                                 : 1 h 42 min
  11. Bit rate                                 : 5 556 kb/s
  12. Width                                    : 1 280 pixels
  13. Height                                   : 536 pixels
  14. Display aspect ratio                     : 2.40:1
  15. Frame rate mode                          : Constant
  16. Frame rate                               : 23.976 (24000/1001/189150) FPS
  17. Color space                              : YUV
  18. Chroma subsampling                       : 4:2:0
  19. Bit depth                                : 8 bits
  20. Scan type                                : Progressive
  21. Bits/(Pixel*Frame)                       : 0.338
  22. Stream size                              : 3.98 GiB (87%)
  23. Writing library                          : x264 core 161 r3048 b86ae3c
  24. Encoding settings                        : cabac=1 / ref=8 / deblock=1:-3:-3 / analyse=0x3:0x133 / me=umh / subme=9 / psy=1 / psy_rd=1.00:0.00 / mixed_ref=1 / me_range=16 / chroma_me=1 / trellis=2 / 8x8dct=1 / cqm=0 / deadzone=21,11 / fast_pskip=0 / chroma_qp_offset=-2 / threads=24 / lookahead_threads=2 / sliced_threads=0 / nr=0 / decimate=0 / interlaced=0 / bluray_compat=0 / constrained_intra=0 / bframes=3 / b_pyramid=2 / b_adapt=2 / b_bias=0 / direct=3 / weightb=1 / open_gop=0 / weightp=2 / keyint=250 / keyint_min=23 / scenecut=40 / intra_refresh=0 / rc=crf / mbtree=0 / crf=17.0 / qcomp=0.60 / qpmin=0 / qpmax=69 / qpstep=4 / ip_ratio=1.40 / pb_ratio=1.30 / aq=3:0.70
  25. Language                                 : English
  26. Default                                  : Yes
  27. Forced                                   : No
  28. Color range                              : Limited
  29. Matrix coefficients                      : BT.709

  30. Audio #1
  31. ID                                       : 2
  32. Format                                   : AC-3
  33. Format/Info                              : Audio Coding 3
  34. Commercial name                          : Dolby Digital
  35. Codec ID                                 : A_AC3
  36. Duration                                 : 1 h 42 min
  37. Bit rate mode                            : Constant
  38. Bit rate                                 : 640 kb/s
  39. Channel(s)                               : 6 channels
  40. Channel layout                           : L R C LFE Ls Rs
  41. Sampling rate                            : 48.0 kHz
  42. Frame rate                               : 31.250 FPS (1536 SPF)
  43. Compression mode                         : Lossy
  44. Stream size                              : 470 MiB (10%)
  45. Language                                 : English
  46. Service kind                             : Complete Main
  47. Default                                  : Yes
  48. Forced                                   : No

  49. Audio #2
  50. ID                                       : 3
  51. Format                                   : AAC LC
  52. Format/Info                              : Advanced Audio Codec Low Complexity
  53. Codec ID                                 : A_AAC-2
  54. Duration                                 : 1 h 42 min
  55. Bit rate                                 : 112 kb/s
  56. Channel(s)                               : 2 channels
  57. Channel layout                           : L R
  58. Sampling rate                            : 48.0 kHz
  59. Frame rate                               : 46.875 FPS (1024 SPF)
  60. Compression mode                         : Lossy
  61. Delay relative to video                  : 20 ms
  62. Stream size                              : 82.5 MiB (2%)
  63. Title                                    : Commentary with Director Deon Taylor & Produder Roxanne Avent Taylor
  64. Language                                 : English
  65. Default                                  : No
  66. Forced                                   : No

  67. Text #1
  68. ID                                       : 4
  69. Format                                   : UTF-8
  70. Codec ID                                 : S_TEXT/UTF8
  71. Codec ID/Info                            : UTF-8 Plain Text
  72. Duration                                 : 1 h 37 min
  73. Bit rate                                 : 46 b/s
  74. Count of elements                        : 1065
  75. Stream size                              : 33.5 KiB (0%)
  76. Title                                    : English (SRT)
  77. Language                                 : English
  78. Default                                  : No
  79. Forced                                   : No

  80. Text #2
  81. ID                                       : 5
  82. Format                                   : UTF-8
  83. Codec ID                                 : S_TEXT/UTF8
  84. Codec ID/Info                            : UTF-8 Plain Text
  85. Duration                                 : 1 h 38 min
  86. Bit rate                                 : 53 b/s
  87. Count of elements                        : 1244
  88. Stream size                              : 38.2 KiB (0%)
  89. Title                                    : English (SDH SRT)
  90. Language                                 : English
  91. Default                                  : No
  92. Forced                                   : No

  93. Text #3
  94. ID                                       : 6
  95. Format                                   : PGS
  96. Muxing mode                              : zlib
  97. Codec ID                                 : S_HDMV/PGS
  98. Codec ID/Info                            : Picture based subtitle format used on BDs/HD-DVDs
  99. Duration                                 : 1 h 38 min
  100. Bit rate                                 : 32.8 kb/s
  101. Count of elements                        : 2502
  102. Stream size                              : 23.0 MiB (0%)
  103. Title                                    : English (SDH)
  104. Language                                 : English
  105. Default                                  : No
  106. Forced                                   : No

  107. Text #4
  108. ID                                       : 7
  109. Format                                   : PGS
  110. Muxing mode                              : zlib
  111. Codec ID                                 : S_HDMV/PGS
  112. Codec ID/Info                            : Picture based subtitle format used on BDs/HD-DVDs
  113. Duration                                 : 1 h 37 min
  114. Bit rate                                 : 24.0 kb/s
  115. Count of elements                        : 1992
  116. Stream size                              : 16.8 MiB (0%)
  117. Title                                    : French
  118. Language                                 : French
  119. Default                                  : No
  120. Forced                                   : No

  121. Text #5
  122. ID                                       : 8
  123. Format                                   : PGS
  124. Muxing mode                              : zlib
  125. Codec ID                                 : S_HDMV/PGS
  126. Codec ID/Info                            : Picture based subtitle format used on BDs/HD-DVDs
  127. Duration                                 : 1 h 37 min
  128. Bit rate                                 : 24.9 kb/s
  129. Count of elements                        : 1834
  130. Stream size                              : 17.5 MiB (0%)
  131. Title                                    : Spanish
  132. Language                                 : Spanish
  133. Default                                  : No
  134. Forced                                   : No

  135. Menu
  136. 00:00:00.000                             : en:Chapter 01
  137. 00:05:29.746                             : en:Chapter 02
  138. 00:12:49.268                             : en:Chapter 03
  139. 00:16:23.733                             : en:Chapter 04
  140. 00:20:46.787                             : en:Chapter 05
  141. 00:29:03.659                             : en:Chapter 06
  142. 00:32:24.609                             : en:Chapter 07
  143. 00:35:07.605                             : en:Chapter 08
  144. 00:40:48.529                             : en:Chapter 09
  145. 00:45:42.114                             : en:Chapter 10
  146. 00:50:24.730                             : en:Chapter 11
  147. 00:57:51.802                             : en:Chapter 12
  148. 01:04:54.224                             : en:Chapter 13
  149. 01:12:38.020                             : en:Chapter 14
  150. 01:21:35.599                             : en:Chapter 15
  151. 01:29:41.626                             : en:Chapter 16
复制代码




                                       
                                       

                                       
                                       
                                       




回复

使用道具 举报

懒得打字嘛,点击右侧快捷回复 【右侧内容,后台自定义】
您需要登录后才可以回帖 登录 | 立即加入

本版积分规则

Archiver|小黑屋| 蓝光电影网 |网站地图

Copyright © 2021 Comsenz Inc. Powered by 蓝光电影网

蓝光电影网

本站内容由用户自主分享和转载自互联网,转载目的在于传递更多信息,并不代表本网赞同其观点和对其真实性负责。

如有侵权、违反国家法律政策行为,请联系我们,我们会第一时间及时清除和处理!

举报反馈邮箱:[email protected]

快速回复 返回顶部 返回列表