找回密码

蓝光电影网

查看: 17|回复: 0

[喜剧] 电影43/43号电影 Movie.43.2013.THEATRiCAL.1080p.BluRay.x264-CAPRiCORN 15.10GB

[复制链接]
蓝光币
426
发表于 2020-8-20 13:03:05 | 显示全部楼层 |阅读模式


◎译  名 电影43 / 43号电影 / Comic movie / Truth or Dare / 丧星玩转荷里活(港) / 激爱543(台)
◎片  名 Movie 43
◎年  代 2013
◎产  地 美国
◎类  别 笑剧
◎语  言 英语
◎上映日期 2013-01-25(美国)
◎IMDb评分  4.3/10 from 97415 users
◎IMDb链接  https://www.imdb.com/title/tt1333125
◎豆瓣评分 6.4/10 from 14239 users
◎豆瓣链接 https://movie.douban.com/subject/3318306/
◎片  长 94分钟
◎导  演 伊丽莎白·班克斯 Elizabeth Banks / 史蒂文·布里尔 Steven Brill / 拉斯提·坎蒂耶夫  Rusty Cundieff / 斯蒂芬·卡尔 Stephen Carr / 詹姆斯·达菲 James Duffy / 格里芬·邓恩 Griffin Dunne / 彼得·法拉利 Peter Farrelly / 帕特里克·福斯贝里 Patrik Forsberg / 詹姆斯·冈 James Gunn / 鲍勃·奥及第克 Bob Odenkirk / 布莱特·拉特纳 Brett Ratner
◎编  剧 帕特里克·福斯贝里 Patrik Forsberg / Rocky Russo / Jeremy Sosenko / Steve Baker / Will Carlough / Matt Portenoy / Greg Pritikin
◎主  演 艾玛·斯通 Emma Stone
       杰瑞米·艾伦·怀特 Jeremy Allen White
       科洛·莫瑞兹 Chloe Moretz
       伊丽莎白·班克斯 Elizabeth Banks
       休·杰克曼 Hugh Jackman
       杰拉德·巴特勒 Gerard Butler
       乔什·杜哈明 Josh Duhamel
       安娜·法瑞丝 Anna Faris
       凯特·温丝莱特 Kate Winslet
       莱丝莉·比伯 Leslie Bibb
       杰森·苏戴奇斯 Jason Sudeikis
       娜奥米·沃茨 Naomi Watts
       乌玛·瑟曼 Uma Thurman
       贾斯汀·朗 Justin Long
       凯特·波茨沃斯 Kate Bosworth
       理查·基尔 Richard Gere
       西恩·威廉·斯科特 Seann William Scott
       列维·施瑞博尔 Liev Schreiber
       鲍比·坎纳瓦尔 Bobby Cannavale
       克里斯汀·贝尔 Kristen Bell
       克里斯托夫·梅兹-普莱瑟 Christopher Mintz-Plasse
       斯戴芬·莫昌特 Stephen Merchant
       哈莉·贝瑞 Halle Berry

◎标  签 笑剧 | 美国 | 恶搞 | 重口胃 | 2013 | 黑色诙谐 | 群星 | 短片集
◎简  介

  
  三个毛头小子正在自拍他们号称“天下上最酷最疯狂”的搞笑视频短片“靶心”。看到互联网上频仍暴增的点击量,三人动心不已,动手准备一部大项目——一部天下上最危险的影片,他们叫它《电影43》。当他们键入“电影43”到一个私人办事器的时辰,发现了制止视频。随即而来的《电影43》的播放列表,不但让三人张口结舌,更足以让你在这十二个自力又相互关联的故事中,欣喜交集。
  这部由十一位导演、十五位编剧和十一个剪辑师配合打造的《电影43》,群星云集,带来史上最强明星声势,艾玛·斯通、哈莉·贝瑞、凯特·温丝莱特、科洛·莫瑞兹等十几位好莱坞大牌明星携手亲情归纳。众多著名明星使出满身解数,倾覆形象之余大秀搞怪底线,上演一出爆笑连连的笑剧视觉大餐。
◎获奖情况  
  第34届金酸莓奖(2014)
  最差影片
  最差导演 詹姆斯·古恩 / 伊丽莎白·班克斯 / 帕特里克·福斯贝里 / James Duffy / 格里芬·邓恩 / 拉斯提·坎蒂耶夫 / 彼得·法雷里 / 史蒂夫·卡尔 / 史蒂文·布里尔 / Will Graham
  最差剧本 Bill O'Malley / Jack Kukoda / Claes Kjellstrom / Jonas Wittenmark / Tobias Carlson / 乔纳森·范塔勒肯 / 杰里米·索山克 / 马特·波特诺伊 / 威尔·卡洛 / 帕特里克·福斯贝里 / Jacob Fleisher / 詹姆斯·古恩 / 格雷格·普里蒂金 / 奥尔·萨里 / 伊丽莎白·夏皮罗 / Will Graham / Rocky Russo / Ricky Blitt
  最差银幕组合(提名)
  1. Video
  2. ID                                       : 1
  3. Format                                   : AVC
  4. Format/Info                              : Advanced Video Codec
  5. Format profile                           : [email protected]
  6. Format settings                          : CABAC / 4 Ref Frames
  7. Format settings, CABAC                   : Yes
  8. Format settings, Reference frames        : 4 frames
  9. Codec ID                                 : V_MPEG4/ISO/AVC
  10. Duration                                 : 1 h 34 min
  11. Bit rate                                 : 19.3 Mb/s
  12. Width                                    : 1 920 pixels
  13. Height                                   : 1 038 pixels
  14. Display aspect ratio                     : 1.85:1
  15. Frame rate mode                          : Constant
  16. Frame rate                               : 23.976 (24000/1001/189150) FPS
  17. Color space                              : YUV
  18. Chroma subsampling                       : 4:2:0
  19. Bit depth                                : 8 bits
  20. Scan type                                : Progressive
  21. Bits/(Pixel*Frame)                       : 0.403
  22. Stream size                              : 12.7 GiB (84%)
  23. Writing library                          : x264 core 161 r3018 db0d417
  24. Encoding settings                        : cabac=1 / ref=4 / deblock=1:0:0 / analyse=0x3:0x133 / me=umh / subme=9 / psy=1 / psy_rd=1.00:0.00 / mixed_ref=1 / me_range=16 / chroma_me=1 / trellis=2 / 8x8dct=1 / cqm=0 / deadzone=21,11 / fast_pskip=1 / chroma_qp_offset=-2 / threads=12 / lookahead_threads=1 / sliced_threads=0 / nr=0 / decimate=1 / interlaced=0 / bluray_compat=0 / constrained_intra=0 / bframes=3 / b_pyramid=2 / b_adapt=2 / b_bias=0 / direct=3 / weightb=1 / open_gop=0 / weightp=2 / keyint=240 / keyint_min=23 / scenecut=40 / intra_refresh=0 / rc_lookahead=60 / rc=crf / mbtree=1 / crf=15.0 / qcomp=0.60 / qpmin=0 / qpmax=69 / qpstep=4 / vbv_maxrate=62500 / vbv_bufsize=78125 / crf_max=0.0 / nal_hrd=none / filler=0 / ip_ratio=1.40 / aq=1:1.00
  25. Language                                 : English
  26. Default                                  : Yes
  27. Forced                                   : No

  28. Audio
  29. ID                                       : 2
  30. Format                                   : DTS XLL
  31. Format/Info                              : Digital Theater Systems
  32. Commercial name                          : DTS-HD Master Audio
  33. Codec ID                                 : A_DTS
  34. Duration                                 : 1 h 34 min
  35. Bit rate mode                            : Variable
  36. Bit rate                                 : 3 677 kb/s
  37. Channel(s)                               : 6 channels
  38. Channel layout                           : C L R Ls Rs LFE
  39. Sampling rate                            : 48.0 kHz
  40. Frame rate                               : 93.750 FPS (512 SPF)
  41. Bit depth                                : 24 bits
  42. Compression mode                         : Lossless
  43. Stream size                              : 2.42 GiB (16%)
  44. Language                                 : English
  45. Default                                  : Yes
  46. Forced                                   : No

  47. Text #1
  48. ID                                       : 3
  49. Format                                   : UTF-8
  50. Codec ID                                 : S_TEXT/UTF8
  51. Codec ID/Info                            : UTF-8 Plain Text
  52. Duration                                 : 1 h 33 min
  53. Bit rate                                 : 88 b/s
  54. Count of elements                        : 1610
  55. Stream size                              : 60.1 KiB (0%)
  56. Language                                 : English
  57. Default                                  : No
  58. Forced                                   : No

  59. Text #2
  60. ID                                       : 4
  61. Format                                   : PGS
  62. Muxing mode                              : zlib
  63. Codec ID                                 : S_HDMV/PGS
  64. Codec ID/Info                            : Picture based subtitle format used on BDs/HD-DVDs
  65. Duration                                 : 1 h 34 min
  66. Bit rate                                 : 56.0 kb/s
  67. Count of elements                        : 3222
  68. Stream size                              : 37.7 MiB (0%)
  69. Language                                 : English
  70. Default                                  : No
  71. Forced                                   : No

  72. Menu
  73. 00:00:00.000                             : en:Chapter 01
  74. 00:02:29.149                             : en:Chapter 02
  75. 00:11:01.661                             : en:Chapter 03
  76. 00:16:54.722                             : en:Chapter 04
  77. 00:26:18.118                             : en:Chapter 05
  78. 00:30:48.013                             : en:Chapter 06
  79. 00:31:07.032                             : en:Chapter 07
  80. 00:39:34.247                             : en:Chapter 08
  81. 00:42:26.502                             : en:Chapter 09
  82. 00:46:16.982                             : en:Chapter 10
  83. 00:51:20.035                             : en:Chapter 11
  84. 00:51:54.194                             : en:Chapter 12
  85. 00:55:24.363                             : en:Chapter 13
  86. 01:03:15.291                             : en:Chapter 14
  87. 01:11:47.386                             : en:Chapter 15
  88. 01:19:25.803                             : en:Chapter 16
复制代码




                                       
                                       

                                       
                                       
                                       




回复

使用道具 举报

懒得打字嘛,点击右侧快捷回复 【右侧内容,后台自定义】
您需要登录后才可以回帖 登录 | 立即加入

本版积分规则

Archiver|小黑屋| 蓝光电影网 |网站地图

Copyright © 2021 Comsenz Inc. Powered by 蓝光电影网

蓝光电影网

本站内容由用户自主分享和转载自互联网,转载目的在于传递更多信息,并不代表本网赞同其观点和对其真实性负责。

如有侵权、违反国家法律政策行为,请联系我们,我们会第一时间及时清除和处理!

举报反馈邮箱:[email protected]

快速回复 返回顶部 返回列表