找回密码

蓝光电影网

查看: 10|回复: 0

[惊悚] 致命弯道 Wrong.Turn.2021.720p.BluRay.x264-PiGNUS 5.58GB

[复制链接]
蓝光币
382
发表于 2021-2-25 09:10:27 | 显示全部楼层 |阅读模式


◎译  名 致命弯道/Wrong Turn: The Foundation/致命弯道7/致命弯道重启版
◎片  名 Wrong Turn
◎年  代 2021
◎产  地 德国
◎类  别 惊悚 / 可骇
◎语  言 英语
◎上映日期 2021-01-26(美国)
◎IMDb评分  5.3/10 from 6909 users
◎IMDb链接  https://www.imdb.com/title/tt9110170/
◎豆瓣评分 5.8/10 from 4634 users
◎豆瓣链接 https://movie.douban.com/subject/30352897/
◎片  长 110分钟
◎导  演 迈克·P·纳尔逊 Mike P. Nelson
◎编  剧 阿兰·B·麦克埃尔罗伊 Alan B. McElroy
◎主  演 夏洛特·维嘉 Charlotte Vega
       艾玛·杜蒙特 Emma Dumont
       马修·莫迪恩 Matthew Modine
       黛茜·海德 Daisy Head
       比尔·萨奇 Bill Sage
       达米安·马菲 Damian Maffei
       迪伦·麦蒂 Dylan McTee
       科里·斯科特·艾伦 Cory Scott Allen
       阿德里安·法维拉 Adrian Favela
       大卫·哈奇森 David Hutchison
       阿丹·布拉德利 Adain Bradley
◎标  签 可骇 | 惊悚 | 2021 | 美国 | 美国电影 | 翻拍 | *可骇 | #系列
◎简  介


  一群密切的好朋友决议前往西弗吉尼亚州徒步观光,却意外碰到在对陌生人不友爱的部落,这是一个已经在山里居住了数百年的部落。面临好朋友相继遇难,女配角操纵自己的勇敢和聪明庇护自己,终极虎口脱险的故事。
  1. Video
  2. ID                                       : 1
  3. Format                                   : AVC
  4. Format/Info                              : Advanced Video Codec
  5. Format profile                           : [email protected]
  6. Format settings                          : CABAC / 8 Ref Frames
  7. Format settings, CABAC                   : Yes
  8. Format settings, Reference frames        : 8 frames
  9. Codec ID                                 : V_MPEG4/ISO/AVC
  10. Duration                                 : 1 h 50 min
  11. Bit rate                                 : 6 465 kb/s
  12. Width                                    : 1 280 pixels
  13. Height                                   : 536 pixels
  14. Display aspect ratio                     : 2.40:1
  15. Frame rate mode                          : Constant
  16. Frame rate                               : 23.976 (24000/1001/189150) FPS
  17. Color space                              : YUV
  18. Chroma subsampling                       : 4:2:0
  19. Bit depth                                : 8 bits
  20. Scan type                                : Progressive
  21. Bits/(Pixel*Frame)                       : 0.393
  22. Stream size                              : 4.98 GiB (89%)
  23. Writing library                          : x264 core 161 r3048 b86ae3c
  24. Encoding settings                        : cabac=1 / ref=8 / deblock=1:-3:-3 / analyse=0x3:0x133 / me=umh / subme=9 / psy=1 / psy_rd=1.00:0.00 / mixed_ref=1 / me_range=16 / chroma_me=1 / trellis=2 / 8x8dct=1 / cqm=0 / deadzone=21,11 / fast_pskip=1 / chroma_qp_offset=-2 / threads=17 / lookahead_threads=1 / sliced_threads=0 / nr=0 / decimate=1 / interlaced=0 / bluray_compat=0 / constrained_intra=0 / bframes=3 / b_pyramid=2 / b_adapt=2 / b_bias=0 / direct=3 / weightb=1 / open_gop=0 / weightp=2 / keyint=250 / keyint_min=23 / scenecut=40 / intra_refresh=0 / rc_lookahead=60 / rc=crf / mbtree=1 / crf=15.5 / qcomp=0.60 / qpmin=0 / qpmax=69 / qpstep=4 / ip_ratio=1.40 / aq=1:1.00
  25. Default                                  : Yes
  26. Forced                                   : No

  27. Audio #1
  28. ID                                       : 2
  29. Format                                   : AC-3
  30. Format/Info                              : Audio Coding 3
  31. Commercial name                          : Dolby Digital
  32. Codec ID                                 : A_AC3
  33. Duration                                 : 1 h 50 min
  34. Bit rate mode                            : Constant
  35. Bit rate                                 : 640 kb/s
  36. Channel(s)                               : 6 channels
  37. Channel layout                           : L R C LFE Ls Rs
  38. Sampling rate                            : 48.0 kHz
  39. Frame rate                               : 31.250 FPS (1536 SPF)
  40. Compression mode                         : Lossy
  41. Stream size                              : 505 MiB (9%)
  42. Language                                 : English
  43. Service kind                             : Complete Main
  44. Default                                  : Yes
  45. Forced                                   : No

  46. Audio #2
  47. ID                                       : 3
  48. Format                                   : AAC LC
  49. Format/Info                              : Advanced Audio Codec Low Complexity
  50. Codec ID                                 : A_AAC-2
  51. Duration                                 : 1 h 50 min
  52. Bit rate                                 : 105 kb/s
  53. Channel(s)                               : 2 channels
  54. Channel layout                           : L R
  55. Sampling rate                            : 48.0 kHz
  56. Frame rate                               : 46.875 FPS (1024 SPF)
  57. Compression mode                         : Lossy
  58. Delay relative to video                  : 9 ms
  59. Stream size                              : 82.8 MiB (1%)
  60. Title                                    : Commentary
  61. Language                                 : English
  62. Default                                  : No
  63. Forced                                   : No

  64. Text #1
  65. ID                                       : 4
  66. Format                                   : PGS
  67. Muxing mode                              : zlib
  68. Codec ID                                 : S_HDMV/PGS
  69. Codec ID/Info                            : Picture based subtitle format used on BDs/HD-DVDs
  70. Duration                                 : 1 h 47 min
  71. Bit rate                                 : 32.6 kb/s
  72. Count of elements                        : 3024
  73. Stream size                              : 25.1 MiB (0%)
  74. Title                                    : English SDH
  75. Language                                 : English
  76. Default                                  : No
  77. Forced                                   : No

  78. Text #2
  79. ID                                       : 5
  80. Format                                   : PGS
  81. Muxing mode                              : zlib
  82. Codec ID                                 : S_HDMV/PGS
  83. Codec ID/Info                            : Picture based subtitle format used on BDs/HD-DVDs
  84. Duration                                 : 1 h 42 min
  85. Bit rate                                 : 27.0 kb/s
  86. Count of elements                        : 2596
  87. Stream size                              : 19.8 MiB (0%)
  88. Title                                    : Spanish
  89. Language                                 : Spanish
  90. Default                                  : No
  91. Forced                                   : No

  92. Menu
  93. 00:00:00.000                             : en:Chapter 01
  94. 00:05:22.364                             : en:Chapter 02
  95. 00:14:39.170                             : en:Chapter 03
  96. 00:20:43.826                             : en:Chapter 04
  97. 00:25:05.129                             : en:Chapter 05
  98. 00:32:36.538                             : en:Chapter 06
  99. 00:39:30.952                             : en:Chapter 07
  100. 00:44:12.859                             : en:Chapter 08
  101. 00:48:35.329                             : en:Chapter 09
  102. 00:58:29.381                             : en:Chapter 10
  103. 01:06:07.172                             : en:Chapter 11
  104. 01:14:34.970                             : en:Chapter 12
  105. 01:22:48.130                             : en:Chapter 13
  106. 01:29:33.535                             : en:Chapter 14
  107. 01:38:13.346                             : en:Chapter 15
  108. 01:43:54.061                             : en:Chapter 16
  109. 01:50:12.397                             : en:Chapter 17
复制代码




                                       
                                       

                                       
                                       
                                       




回复

使用道具 举报

懒得打字嘛,点击右侧快捷回复 【右侧内容,后台自定义】
您需要登录后才可以回帖 登录 | 立即加入

本版积分规则

Archiver|小黑屋| 蓝光电影网 |网站地图

Copyright © 2021 Comsenz Inc. Powered by 蓝光电影网

蓝光电影网

本站内容由用户自主分享和转载自互联网,转载目的在于传递更多信息,并不代表本网赞同其观点和对其真实性负责。

如有侵权、违反国家法律政策行为,请联系我们,我们会第一时间及时清除和处理!

举报反馈邮箱:[email protected]

快速回复 返回顶部 返回列表