找回密码

蓝光电影网

查看: 4|回复: 0

[喜剧] 马戏团/大马戏团 The.Circus.1928.REMASTERED.720p.BluRay.x264-SiNNERS 3.28GB

[复制链接]
蓝光币
382
发表于 2019-10-7 03:14:13 | 显示全部楼层 |阅读模式


◎译  名 马戏团 / 大马戏团
◎片  名 The Circus
◎年  代 1928
◎产  地 美国
◎类  别 笑剧 / 恋爱
◎语  言 英语
◎上映日期 1928-01-06
◎IMDb评分  8.2/10 from 23400 users
◎IMDb链接  http://www.imdb.com/title/tt0018773
◎豆瓣评分 9.2/10 from 8890 users
◎豆瓣链接 https://movie.douban.com/subject/1299628/
◎片  长 71 分钟
◎导  演 查理·卓别林 Charles Chaplin
◎编  剧 查理·卓别林 Charles Chaplin
◎主  演 阿尔·欧内斯特·加西亚 Al Ernest Garcia
       梅尔纳·肯尼迪 Merna Kennedy
       Harry Crocker
       George Davis
       亨利·伯格曼 Henry Bergman
       Tiny Sandford
       约翰兰德 John Rand
       查理·卓别林 Charles Chaplin
       艾伯特·奥斯汀 Albert Austin
       Stanley Blystone
       海尼·康克林 Heinie Conklin
       Toraichi Kono
       贝蒂莫里西 Betty Morrissey
       L.J. O'Connor
       杰克 P. 皮尔斯 Jack P. Pierce
       Hugh Saxon
       Armand Triller

◎标  签 卓别林 | 笑剧 | 默片 | 美国 | 黑白 | 典范 | CharlesChaplin | 美国电影
◎简  介  
  马戏团的表演由于呆板无趣而落空了观众,他们面临着破产和开张的危险,谁都不晓得会不会有“救星”突如其来。流浪汉查理(查理·卓别林 Charles Chaplin 饰)在游园会中被卷入了一个小偷的圈套中,招来差人的追捕。他像无头的苍蝇一样钻进了正在表演的马戏团。舞台上,查理 躲避差人的各类肢体行动,被观众当做马戏团的表演,他们很是喜好查理的“表演”,热烈地拍手来。马戏团老板想让查理留下来,帮助马戏团起死复生。虽然查理并不想以马戏团为生,可是穷途末路的他为了保持生存也只好接管了老板的发起。很快,查理的笑剧表演天赋让他成为了马戏团的招牌演员。他爱上了善良柔弱的马戏团老板女儿,想尽法子取悦她,可是,老板的女儿真正爱上了的人却是走钢丝的男演员,为了玉成所爱的人,悲伤的查理冷静地分开了喜好他的观众。
  查理·卓别林凭此片获得第1届奥斯卡金像奖声誉奖。
◎获奖情况  
  第1届奥斯卡金像奖(1929)
  毕生成就奖 查理·卓别林
  1. Video
  2. ID                                       : 1
  3. Format                                   : AVC
  4. Format/Info                              : Advanced Video Codec
  5. Format profile                           : [email protected]
  6. Format settings                          : CABAC / 9 Ref Frames
  7. Format settings, CABAC                   : Yes
  8. Format settings, Reference frames        : 9 frames
  9. Codec ID                                 : V_MPEG4/ISO/AVC
  10. Duration                                 : 1 h 12 min
  11. Bit rate                                 : 6 212 kb/s
  12. Width                                    : 960 pixels
  13. Height                                   : 720 pixels
  14. Display aspect ratio                     : 4:3
  15. Frame rate mode                          : Constant
  16. Frame rate                               : 23.976 (24000/1001) FPS
  17. Color space                              : YUV
  18. Chroma subsampling                       : 4:2:0
  19. Bit depth                                : 8 bits
  20. Scan type                                : Progressive
  21. Bits/(Pixel*Frame)                       : 0.375
  22. Stream size                              : 3.16 GiB (96%)
  23. Writing library                          : x264 core 158 r2984 3759fcb
  24. Encoding settings                        : cabac=1 / ref=9 / deblock=1:-3:-3 / analyse=0x3:0x113 / me=umh / subme=8 / psy=1 / psy_rd=1.00:0.00 / mixed_ref=1 / me_range=16 / chroma_me=1 / trellis=1 / 8x8dct=1 / cqm=0 / deadzone=21,11 / fast_pskip=0 / chroma_qp_offset=-2 / threads=22 / lookahead_threads=3 / sliced_threads=0 / nr=0 / decimate=1 / interlaced=0 / bluray_compat=0 / constrained_intra=0 / bframes=3 / b_pyramid=2 / b_adapt=1 / b_bias=0 / direct=1 / weightb=1 / open_gop=0 / weightp=2 / keyint=250 / keyint_min=23 / scenecut=40 / intra_refresh=0 / rc_lookahead=40 / rc=2pass / mbtree=1 / bitrate=6212 / ratetol=1.0 / qcomp=0.60 / qpmin=0 / qpmax=69 / qpstep=4 / cplxblur=20.0 / qblur=0.5 / ip_ratio=1.40 / aq=1:1.00
  25. Language                                 : English
  26. Default                                  : Yes
  27. Forced                                   : No

  28. Audio
  29. ID                                       : 2
  30. Format                                   : FLAC
  31. Format/Info                              : Free Lossless Audio Codec
  32. Codec ID                                 : A_FLAC
  33. Duration                                 : 1 h 12 min
  34. Bit rate mode                            : Variable
  35. Bit rate                                 : 241 kb/s
  36. Channel(s)                               : 1 channel
  37. Channel layout                           : C
  38. Sampling rate                            : 48.0 kHz
  39. Frame rate                               : 11.719 FPS (4096 SPF)
  40. Bit depth                                : 24 bits
  41. Compression mode                         : Lossless
  42. Stream size                              : 125 MiB (4%)
  43. Writing library                          : libFLAC 1.3.2 (UTC 2017-01-01)
  44. Language                                 : English
  45. Default                                  : Yes
  46. Forced                                   : No

  47. Menu
  48. 00:00:00.000                             : en:00:00:00.000
  49. 00:04:52.709                             : en:00:04:52.709
  50. 00:08:00.605                             : en:00:08:00.605
  51. 00:11:27.103                             : en:00:11:27.103
  52. 00:17:04.273                             : en:00:17:04.273
  53. 00:20:56.046                             : en:00:20:56.046
  54. 00:28:37.466                             : en:00:28:37.466
  55. 00:31:09.659                             : en:00:31:09.659
  56. 00:35:09.482                             : en:00:35:09.482
  57. 00:38:20.965                             : en:00:38:20.965
  58. 00:41:51.467                             : en:00:41:51.467
  59. 00:44:42.263                             : en:00:44:42.263
  60. 00:46:44.593                             : en:00:46:44.593
  61. 00:53:13.732                             : en:00:53:13.732
  62. 01:00:10.899                             : en:01:00:10.899
  63. 01:06:12.677                             : en:01:06:12.677
  64. 01:08:54.714                             : en:01:08:54.714
复制代码




                                       
                                       

                                       
                                       
                                       




回复

使用道具 举报

懒得打字嘛,点击右侧快捷回复 【右侧内容,后台自定义】
您需要登录后才可以回帖 登录 | 立即加入

本版积分规则

Archiver|小黑屋| 蓝光电影网 |网站地图

Copyright © 2021 Comsenz Inc. Powered by 蓝光电影网

蓝光电影网

本站内容由用户自主分享和转载自互联网,转载目的在于传递更多信息,并不代表本网赞同其观点和对其真实性负责。

如有侵权、违反国家法律政策行为,请联系我们,我们会第一时间及时清除和处理!

举报反馈邮箱:[email protected]

快速回复 返回顶部 返回列表