找回密码

蓝光电影网

查看: 47|回复: 1

[恐怖] 天使陨落 Angels.Fallen.2020.1080p.BluRay.x264-FREEMAN 9.78GB

[复制链接]
蓝光币
515
发表于 2021-1-9 09:23:58 | 显示全部楼层 |阅读模式
[img][/img]

◎译  名 天使殒落
◎片  名 Angels Fallen
◎年  代 2020
◎产  地 美国
◎类  别 可骇
◎语  言 英语
◎上映日期 2020-01-14(美国)
◎IMDb评分  3.9/10 from 942 users
◎IMDb链接  https://www.imdb.com/title/tt5759590/
◎豆瓣评分 /10 from 0 users
◎豆瓣链接 https://movie.douban.com/subject/34918913/
◎片  长 86分钟
◎主  演 妮古拉·柏森娜 Nicola Posener
       迈克尔·马德森 Michael Madsen
       休斯顿·瑞恩斯 Houston Rhines
       Vinny DeGennaro
       海莉·赫尔米达 Hailey Hermida
       李·霍拉法伊 Lee Kholafai
       汤米·纳什 Tommy Nash
       William Legue
◎标  签 美国 | 奇异 | 2020 | 美国电影 | 科幻 | 惊悚 | 奇异魔幻 | 行动活动
◎简  介


  在他的妻子与黑暗势力的战役中不幸牺牲后,加布里埃尔被压服重新加入他之前的恶魔猎人团队,从美国相对不为人知的地方观光到欧洲的未知深处。他与他冷淡的最好的朋友迈克尔一路,他有一个黑暗的奥秘,奥秘的汉娜的愿景猜测未来,和一群五花八门的恶魔杀手。在落空了他的一部分团队后,加布里埃尔必须面临他悲凉的曩昔,并决议谁是实在的朋友或仇敌。
  1. Video
  2. ID                                       : 1
  3. Format                                   : AVC
  4. Format/Info                              : Advanced Video Codec
  5. Format profile                           : [email protected]
  6. Format settings                          : CABAC / 4 Ref Frames
  7. Format settings, CABAC                   : Yes
  8. Format settings, Reference frames        : 4 frames
  9. Codec ID                                 : V_MPEG4/ISO/AVC
  10. Duration                                 : 1 h 26 min
  11. Bit rate                                 : 14.4 Mb/s
  12. Width                                    : 1 920 pixels
  13. Height                                   : 1 080 pixels
  14. Display aspect ratio                     : 16:9
  15. Frame rate mode                          : Constant
  16. Frame rate                               : 23.976 (24000/1001/189150) FPS
  17. Color space                              : YUV
  18. Chroma subsampling                       : 4:2:0
  19. Bit depth                                : 8 bits
  20. Scan type                                : Progressive
  21. Bits/(Pixel*Frame)                       : 0.290
  22. Stream size                              : 8.73 GiB (89%)
  23. Writing library                          : x264 core 161 r3018 db0d417
  24. Encoding settings                        : cabac=1 / ref=4 / deblock=1:-3:-3 / analyse=0x3:0x133 / me=umh / subme=9 / psy=1 / psy_rd=1.00:0.00 / mixed_ref=1 / me_range=16 / chroma_me=1 / trellis=2 / 8x8dct=1 / cqm=0 / deadzone=21,11 / fast_pskip=1 / chroma_qp_offset=-2 / threads=9 / lookahead_threads=1 / sliced_threads=0 / nr=0 / decimate=1 / interlaced=0 / bluray_compat=0 / constrained_intra=0 / bframes=3 / b_pyramid=2 / b_adapt=2 / b_bias=0 / direct=3 / weightb=1 / open_gop=0 / weightp=2 / keyint=250 / keyint_min=23 / scenecut=40 / intra_refresh=0 / rc_lookahead=60 / rc=crf / mbtree=1 / crf=17.0 / qcomp=0.60 / qpmin=0 / qpmax=69 / qpstep=4 / ip_ratio=1.40 / aq=3:0.80
  25. Language                                 : English
  26. Default                                  : Yes
  27. Forced                                   : No
  28. Color range                              : Limited
  29. Matrix coefficients                      : BT.709

  30. Audio
  31. ID                                       : 2
  32. Format                                   : DTS XLL
  33. Format/Info                              : Digital Theater Systems
  34. Commercial name                          : DTS-HD Master Audio
  35. Codec ID                                 : A_DTS
  36. Duration                                 : 1 h 26 min
  37. Bit rate mode                            : Variable
  38. Bit rate                                 : 1 737 kb/s
  39. Channel(s)                               : 6 channels
  40. Channel layout                           : C L R Ls Rs LFE
  41. Sampling rate                            : 48.0 kHz
  42. Frame rate                               : 93.750 FPS (512 SPF)
  43. Bit depth                                : 16 bits
  44. Compression mode                         : Lossless
  45. Stream size                              : 1.05 GiB (11%)
  46. Title                                    : DTS-HD
  47. Language                                 : English
  48. Default                                  : Yes
  49. Forced                                   : No

  50. Menu
  51. 00:00:00.000                             : en:00:00:00.000
  52. 00:10:42.642                             : en:00:10:42.642
  53. 00:20:38.279                             : en:00:20:38.279
  54. 00:30:08.724                             : en:00:30:08.724
  55. 00:41:25.942                             : en:00:41:25.942
  56. 01:00:51.606                             : en:01:00:51.606
  57. 01:10:18.881                             : en:01:10:18.881
  58. 01:17:48.455                             : en:01:17:48.455
复制代码



                                       
                                       

                                       
                                       
                                       




回复

使用道具 举报

蓝光币
7
发表于 2021-10-5 12:18:10 | 显示全部楼层

楼主太厉害了!楼主,电影应该很好看我觉得蓝光电影网真是个好地方!
回复 支持 反对

使用道具 举报

懒得打字嘛,点击右侧快捷回复 【右侧内容,后台自定义】
您需要登录后才可以回帖 登录 | 立即加入

本版积分规则

Archiver|小黑屋| 蓝光电影网 |网站地图

Copyright © 2021 Comsenz Inc. Powered by 蓝光电影网

蓝光电影网

本站内容由用户自主分享和转载自互联网,转载目的在于传递更多信息,并不代表本网赞同其观点和对其真实性负责。

如有侵权、违反国家法律政策行为,请联系我们,我们会第一时间及时清除和处理!

举报反馈邮箱:[email protected]

快速回复 返回顶部 返回列表