找回密码

蓝光电影网

查看: 18|回复: 0

[惊悚] 地平线/空中谜航 Horizon.Line.2020.720p.BluRay.x264-PiGNUS 4.75GB

[复制链接]
蓝光币
426
发表于 2021-2-21 22:25:27 | 显示全部楼层 |阅读模式


◎译  名 地平线/空中谜航(台)
◎片  名 Horizon Line
◎年  代 2020
◎产  地 瑞典,美国
◎类  别 惊悚 / 灾难
◎语  言 英语
◎上映日期 2020-11-06(英国)
◎IMDb评分  4.6/10 from 3525 users
◎IMDb链接  https://www.imdb.com/title/tt5498354/
◎豆瓣评分 5.8/10 from 549 users
◎豆瓣链接 https://movie.douban.com/subject/33456921/
◎片  长 87分钟
◎导  演 米凯尔·马奇曼 Mikael Marcimain
◎编  剧 乔什·坎贝尔 Josh Campbell / 马修·斯托肯 Matthew Stuecken
◎主  演 亚历山大·德雷蒙 Alexander Dreymon
       艾莉森·威廉姆斯 Allison Williams
       凯斯·大卫 Keith David
       珀尔·麦基 Pearl Mackie
       贾马恩·亨特 Jumayn Hunter
◎标  签 灾难 | 惊悚 | 2020 | 瑞典 | 美国 | 悬疑 | 地平线 | 电影
◎简  介


  故事报告一对情侣坐小飞机去岛屿上加入婚礼,在分开小岛时飞翔员不幸突发心脏病,俩人得想法子活下来。
  1. Video
  2. ID                                       : 1
  3. Format                                   : AVC
  4. Format/Info                              : Advanced Video Codec
  5. Format profile                           : [email protected]
  6. Format settings                          : CABAC / 8 Ref Frames
  7. Format settings, CABAC                   : Yes
  8. Format settings, Reference frames        : 8 frames
  9. Codec ID                                 : V_MPEG4/ISO/AVC
  10. Duration                                 : 1 h 31 min
  11. Bit rate                                 : 6 738 kb/s
  12. Width                                    : 1 280 pixels
  13. Height                                   : 536 pixels
  14. Display aspect ratio                     : 2.40:1
  15. Frame rate mode                          : Constant
  16. Frame rate                               : 23.976 (24000/1001/189150) FPS
  17. Color space                              : YUV
  18. Chroma subsampling                       : 4:2:0
  19. Bit depth                                : 8 bits
  20. Scan type                                : Progressive
  21. Bits/(Pixel*Frame)                       : 0.410
  22. Stream size                              : 4.33 GiB (91%)
  23. Writing library                          : x264 core 161 r3043 59c0609
  24. Encoding settings                        : cabac=1 / ref=8 / deblock=1:-3:-3 / analyse=0x3:0x133 / me=umh / subme=9 / psy=1 / psy_rd=1.00:0.00 / mixed_ref=1 / me_range=16 / chroma_me=1 / trellis=2 / 8x8dct=1 / cqm=0 / deadzone=21,11 / fast_pskip=1 / chroma_qp_offset=-2 / threads=17 / lookahead_threads=1 / sliced_threads=0 / nr=0 / decimate=1 / interlaced=0 / bluray_compat=0 / constrained_intra=0 / bframes=3 / b_pyramid=2 / b_adapt=2 / b_bias=0 / direct=3 / weightb=1 / open_gop=0 / weightp=2 / keyint=250 / keyint_min=23 / scenecut=40 / intra_refresh=0 / rc_lookahead=60 / rc=crf / mbtree=1 / crf=15.0 / qcomp=0.60 / qpmin=0 / qpmax=69 / qpstep=4 / ip_ratio=1.40 / aq=1:1.00
  25. Default                                  : Yes
  26. Forced                                   : No

  27. Audio
  28. ID                                       : 2
  29. Format                                   : AC-3
  30. Format/Info                              : Audio Coding 3
  31. Commercial name                          : Dolby Digital
  32. Codec ID                                 : A_AC3
  33. Duration                                 : 1 h 31 min
  34. Bit rate mode                            : Constant
  35. Bit rate                                 : 640 kb/s
  36. Channel(s)                               : 6 channels
  37. Channel layout                           : L R C LFE Ls Rs
  38. Sampling rate                            : 48.0 kHz
  39. Frame rate                               : 31.250 FPS (1536 SPF)
  40. Compression mode                         : Lossy
  41. Stream size                              : 421 MiB (9%)
  42. Language                                 : English
  43. Service kind                             : Complete Main
  44. Default                                  : Yes
  45. Forced                                   : No

  46. Text #1
  47. ID                                       : 3
  48. Format                                   : PGS
  49. Muxing mode                              : zlib
  50. Codec ID                                 : S_HDMV/PGS
  51. Codec ID/Info                            : Picture based subtitle format used on BDs/HD-DVDs
  52. Duration                                 : 1 h 22 min
  53. Bit rate                                 : 33.1 kb/s
  54. Count of elements                        : 2106
  55. Stream size                              : 19.5 MiB (0%)
  56. Title                                    : English SDH
  57. Language                                 : English
  58. Default                                  : No
  59. Forced                                   : No

  60. Text #2
  61. ID                                       : 4
  62. Format                                   : PGS
  63. Muxing mode                              : zlib
  64. Codec ID                                 : S_HDMV/PGS
  65. Codec ID/Info                            : Picture based subtitle format used on BDs/HD-DVDs
  66. Duration                                 : 1 h 30 min
  67. Bit rate                                 : 21.1 kb/s
  68. Count of elements                        : 1730
  69. Stream size                              : 13.6 MiB (0%)
  70. Title                                    : Spanish
  71. Language                                 : Spanish
  72. Default                                  : No
  73. Forced                                   : No

  74. Menu
  75. 00:00:00.000                             : en:Chapter 01
  76. 00:05:02.719                             : en:Chapter 02
  77. 00:08:35.807                             : en:Chapter 03
  78. 00:12:02.639                             : en:Chapter 04
  79. 00:14:43.758                             : en:Chapter 05
  80. 00:17:57.118                             : en:Chapter 06
  81. 00:23:35.706                             : en:Chapter 07
  82. 00:29:23.720                             : en:Chapter 08
  83. 00:31:57.207                             : en:Chapter 09
  84. 00:38:58.920                             : en:Chapter 10
  85. 00:42:30.965                             : en:Chapter 11
  86. 00:48:51.512                             : en:Chapter 12
  87. 00:53:58.610                             : en:Chapter 13
  88. 00:58:11.238                             : en:Chapter 14
  89. 01:04:53.890                             : en:Chapter 15
  90. 01:08:17.510                             : en:Chapter 16
  91. 01:12:32.890                             : en:Chapter 17
  92. 01:15:26.731                             : en:Chapter 18
  93. 01:18:29.079                             : en:Chapter 19
  94. 01:23:45.103                             : en:Chapter 20
  95. 01:31:57.929                             : en:Chapter 21
复制代码




                                       
                                       

                                       
                                       
                                       




回复

使用道具 举报

懒得打字嘛,点击右侧快捷回复 【右侧内容,后台自定义】
您需要登录后才可以回帖 登录 | 立即加入

本版积分规则

Archiver|小黑屋| 蓝光电影网 |网站地图

Copyright © 2021 Comsenz Inc. Powered by 蓝光电影网

蓝光电影网

本站内容由用户自主分享和转载自互联网,转载目的在于传递更多信息,并不代表本网赞同其观点和对其真实性负责。

如有侵权、违反国家法律政策行为,请联系我们,我们会第一时间及时清除和处理!

举报反馈邮箱:[email protected]

快速回复 返回顶部 返回列表