找回密码

蓝光电影网

查看: 13|回复: 0

[动作] 野鹅敢死队2/野鹅敢死队:续集 Wild.Geese.II.1985.1080p.BluRay.x264.FLAC.2.0-HANDJOB 9.09GB

[复制链接]
蓝光币
382
发表于 2021-5-26 23:15:31 | 显示全部楼层 |阅读模式
[img][/img]

◎译  名 野鹅敢死队2/野鹅敢死队:续集
◎片  名 Wild Geese II
◎年  代 1985
◎产  地 英国,澳大利亚
◎类  别 行动 / 惊悚 / 冒险
◎语  言 英语
◎上映日期 1985
◎豆瓣评分 /10 from 0 users
◎豆瓣链接 https://movie.douban.com/subject/4018385/
◎片  长 125 分钟
◎导  演 彼特·R·亨特 Peter R. Hunt
◎编  剧 雷金纳德·罗斯 Reginald Rose
◎主  演 罗纳德·尼施克 Ronald Nitschke
       莱斯利·马尔顿 Leslie Malton
       英格丽德·皮特 Ingrid Pitt
       Gerrit Schmidt-Fo?
       约翰·特里 John Terry
       德里克·汤普森 Derek Thompson
       罗伯特·韦伯 Robert Webber
       斯特拉特福德·约翰斯 Stratford Johns
       Peter Kybart
       爱德华·福克斯 Edward Fox
       斯科特·格伦 Scott Glenn
       帕特里克·斯图尔特 Patrick Stewart
       芭芭拉·卡勒拉 Barbara Carrera
       劳伦斯·奥利弗 Laurence Olivier
       达·范·汉森德 Dan van Husen
       Billy Boyle
       Robert Freitag
       Michael N. Harbour
       肯尼思·黑格 Kenneth Haigh
       Amelie zur Mühlen
◎标  签 战争 | 英国 | 行动 | 英国电影 | 雇佣兵 | 1985 | 这张电影这里有 | 典范老片
◎简  介


  约翰(斯科特·格林 Scott Glenn 饰)受雇于某英国伦敦电视台富翁,筹组佣兵团队前往一座位于德国柏林的城堡,诡计绑架战犯鲁道夫(劳伦斯·奥利弗 Laurence Olivier 饰),希望能逼问出战时纳粹的一些奥秘。但却阴错阳差,让鲁道夫给溜走,约翰反而成为各个可骇团体的暗杀工具,包括俄国,巴勒斯坦,与北爱尔兰共和军都起头有所行动。
  1. Video
  2. ID                                       : 1
  3. Format                                   : AVC
  4. Format/Info                              : Advanced Video Codec
  5. Format profile                           : [email protected]
  6. Format settings                          : CABAC / 4 Ref Frames
  7. Format settings, CABAC                   : Yes
  8. Format settings, Reference frames        : 4 frames
  9. Codec ID                                 : V_MPEG4/ISO/AVC
  10. Duration                                 : 2 h 5 min
  11. Bit rate                                 : 9 986 kb/s
  12. Width                                    : 1 920 pixels
  13. Height                                   : 1 032 pixels
  14. Display aspect ratio                     : 1.85:1
  15. Frame rate mode                          : Constant
  16. Frame rate                               : 23.976 (24000/1001/189150) FPS
  17. Color space                              : YUV
  18. Chroma subsampling                       : 4:2:0
  19. Bit depth                                : 8 bits
  20. Scan type                                : Progressive
  21. Bits/(Pixel*Frame)                       : 0.210
  22. Stream size                              : 8.72 GiB (96%)
  23. Writing library                          : x264 core 157 r2935 545de2f
  24. Encoding settings                        : cabac=1 / ref=4 / deblock=1:-3:-3 / analyse=0x3:0x133 / me=umh / subme=10 / psy=1 / psy_rd=1.00:0.00 / mixed_ref=1 / me_range=32 / chroma_me=1 / trellis=2 / 8x8dct=1 / cqm=0 / deadzone=21,11 / fast_pskip=0 / chroma_qp_offset=-2 / threads=24 / lookahead_threads=6 / sliced_threads=0 / nr=0 / decimate=0 / interlaced=0 / bluray_compat=0 / constrained_intra=0 / bframes=16 / b_pyramid=2 / b_adapt=2 / b_bias=0 / direct=3 / weightb=1 / open_gop=0 / weightp=2 / keyint=240 / keyint_min=24 / scenecut=40 / intra_refresh=0 / rc_lookahead=60 / rc=crf / mbtree=0 / crf=20.5 / qcomp=0.60 / qpmin=0 / qpmax=69 / qpstep=4 / vbv_maxrate=62500 / vbv_bufsize=78125 / crf_max=0.0 / nal_hrd=none / filler=0 / ip_ratio=1.40 / pb_ratio=1.30 / aq=2:1.00
  25. Default                                  : Yes
  26. Forced                                   : No
  27. Color range                              : Limited
  28. Color primaries                          : BT.709
  29. Transfer characteristics                 : BT.709
  30. Matrix coefficients                      : BT.709
  31. Audio #1
  32. ID                                       : 2
  33. Format                                   : FLAC
  34. Format/Info                              : Free Lossless Audio Codec
  35. Codec ID                                 : A_FLAC
  36. Duration                                 : 2 h 5 min
  37. Bit rate mode                            : Variable
  38. Bit rate                                 : 338 kb/s
  39. Channel(s)                               : 2 channels
  40. Channel layout                           : L R
  41. Sampling rate                            : 48.0 kHz
  42. Frame rate                               : 11.719 FPS (4096 SPF)
  43. Bit depth                                : 16 bits
  44. Compression mode                         : Lossless
  45. Stream size                              : 302 MiB (3%)
  46. Language                                 : English
  47. Default                                  : Yes
  48. Forced                                   : No
  49. Audio #2
  50. ID                                       : 3
  51. Format                                   : AAC LC
  52. Format/Info                              : Advanced Audio Codec Low Complexity
  53. Codec ID                                 : A_AAC-2
  54. Duration                                 : 2 h 5 min
  55. Bit rate                                 : 79.4 kb/s
  56. Channel(s)                               : 2 channels
  57. Channel layout                           : L R
  58. Sampling rate                            : 48.0 kHz
  59. Frame rate                               : 46.875 FPS (1024 SPF)
  60. Compression mode                         : Lossy
  61. Delay relative to video                  : -44 ms
  62. Stream size                              : 71.0 MiB (1%)
  63. Title                                    : Commentary by film historians Steve Mitchell and Howard S. Berger
  64. Language                                 : English
  65. Default                                  : No
  66. Forced                                   : No
  67. Text
  68. ID                                       : 4
  69. Format                                   : UTF-8
  70. Codec ID                                 : S_TEXT/UTF8
  71. Codec ID/Info                            : UTF-8 Plain Text
  72. Duration                                 : 2 h 1 min
  73. Bit rate                                 : 53 b/s
  74. Count of elements                        : 1419
  75. Stream size                              : 47.3 KiB (0%)
  76. Language                                 : English
  77. Default                                  : No
  78. Forced                                   : No
  79. Menu
  80. 00:00:00.000                             : :Chapter 1
  81. 00:10:52.861                             : :Chapter 2
  82. 00:21:24.492                             : :Chapter 3
  83. 00:34:19.975                             : :Chapter 4
  84. 00:51:36.010                             : :Chapter 5
  85. 01:11:03.301                             : :Chapter 6
  86. 01:25:53.690                             : :Chapter 7
  87. 01:47:14.345                             : :Chapter 8
复制代码




                                       
                                       

                                       
                                       
                                       




回复

使用道具 举报

懒得打字嘛,点击右侧快捷回复 【右侧内容,后台自定义】
您需要登录后才可以回帖 登录 | 立即加入

本版积分规则

Archiver|小黑屋| 蓝光电影网 |网站地图

Copyright © 2021 Comsenz Inc. Powered by 蓝光电影网

蓝光电影网

本站内容由用户自主分享和转载自互联网,转载目的在于传递更多信息,并不代表本网赞同其观点和对其真实性负责。

如有侵权、违反国家法律政策行为,请联系我们,我们会第一时间及时清除和处理!

举报反馈邮箱:[email protected]

快速回复 返回顶部 返回列表