找回密码

蓝光电影网

查看: 13|回复: 0

[恐怖] 特别 The.Special.2020.1080p.BluRay.x264-FREEMAN 4.06GB

[复制链接]
蓝光币
382
发表于 2021-1-8 22:52:06 | 显示全部楼层 |阅读模式
[img][/img]

◎译  名 出格
◎片  名 The Special
◎年  代 2020
◎产  地 美国
◎类  别 可骇
◎语  言 英语
◎上映日期 2020-10-13(美国收集)
◎IMDb评分  4.6/10 from 367 users
◎IMDb链接  https://www.imdb.com/title/tt9118804/
◎豆瓣评分 /10 from 0 users
◎豆瓣链接 https://movie.douban.com/subject/34868877/
◎片  长 94分钟
◎导  演 B·哈里森·史姑娘 B. Harrison Smith
◎编  剧 Mark Steensland
◎主  演 戴夫·谢里登 Dave Sheridan
       莎拉·弗伦奇 Sarah French
◎标  签 可骇 | 莉莉丝原创字幕 | 美国电影 | 可骇惊悚悬疑重口血腥 | [歐美] | 3M稀影基地论坛 | 3M稀影基地
◎简  介


  Jerry Harford以为妻子背着自己外遇,他最好的朋友激励他以眼还眼,但却致使不胜的可骇结果。Jerry起头堕入一个没有尽头的超自然噩梦,恰似暗黑版的《致命的吸引力》(Fatal Attraction)。
  1. Video
  2. ID                                       : 1
  3. Format                                   : AVC
  4. Format/Info                              : Advanced Video Codec
  5. Format profile                           : [email protected]
  6. Format settings                          : CABAC / 5 Ref Frames
  7. Format settings, CABAC                   : Yes
  8. Format settings, Reference frames        : 5 frames
  9. Codec ID                                 : V_MPEG4/ISO/AVC
  10. Duration                                 : 1 h 34 min
  11. Bit rate                                 : 3 217 kb/s
  12. Width                                    : 1 920 pixels
  13. Height                                   : 800 pixels
  14. Display aspect ratio                     : 2.40:1
  15. Frame rate mode                          : Constant
  16. Frame rate                               : 23.976 (24000/1001/189150) FPS
  17. Color space                              : YUV
  18. Chroma subsampling                       : 4:2:0
  19. Bit depth                                : 8 bits
  20. Scan type                                : Progressive
  21. Bits/(Pixel*Frame)                       : 0.087
  22. Stream size                              : 2.11 GiB (52%)
  23. Writing library                          : x264 core 161 r3018 db0d417
  24. Encoding settings                        : cabac=1 / ref=5 / deblock=1:-3:-3 / analyse=0x3:0x133 / me=umh / subme=9 / psy=1 / psy_rd=1.00:0.00 / mixed_ref=1 / me_range=16 / chroma_me=1 / trellis=2 / 8x8dct=1 / cqm=0 / deadzone=21,11 / fast_pskip=1 / chroma_qp_offset=-2 / threads=18 / lookahead_threads=1 / sliced_threads=0 / nr=0 / decimate=1 / interlaced=0 / bluray_compat=0 / constrained_intra=0 / bframes=3 / b_pyramid=2 / b_adapt=2 / b_bias=0 / direct=3 / weightb=1 / open_gop=0 / weightp=2 / keyint=250 / keyint_min=23 / scenecut=40 / intra_refresh=0 / rc_lookahead=60 / rc=crf / mbtree=1 / crf=17.0 / qcomp=0.60 / qpmin=0 / qpmax=69 / qpstep=4 / ip_ratio=1.40 / aq=3:0.80
  25. Language                                 : English
  26. Default                                  : Yes
  27. Forced                                   : No
  28. Color range                              : Limited
  29. Matrix coefficients                      : BT.709

  30. Audio
  31. ID                                       : 2
  32. Format                                   : DTS XLL
  33. Format/Info                              : Digital Theater Systems
  34. Commercial name                          : DTS-HD Master Audio
  35. Codec ID                                 : A_DTS
  36. Duration                                 : 1 h 34 min
  37. Bit rate mode                            : Variable
  38. Bit rate                                 : 2 963 kb/s
  39. Channel(s)                               : 6 channels
  40. Channel layout                           : C L R Ls Rs LFE
  41. Sampling rate                            : 48.0 kHz
  42. Frame rate                               : 93.750 FPS (512 SPF)
  43. Bit depth                                : 24 bits
  44. Compression mode                         : Lossless
  45. Stream size                              : 1.95 GiB (48%)
  46. Title                                    : DTS-HD
  47. Language                                 : English
  48. Default                                  : Yes
  49. Forced                                   : No

  50. Menu
  51. 00:00:00.000                             : en:00:00:00.000
  52. 00:10:00.600                             : en:00:10:00.600
  53. 00:20:01.200                             : en:00:20:01.200
  54. 00:30:01.800                             : en:00:30:01.800
  55. 00:40:02.400                             : en:00:40:02.400
  56. 00:50:03.000                             : en:00:50:03.000
  57. 01:00:03.600                             : en:01:00:03.600
  58. 01:10:04.200                             : en:01:10:04.200
  59. 01:20:04.800                             : en:01:20:04.800
  60. 01:30:05.400                             : en:01:30:05.400
复制代码



                                       
                                       

                                       
                                       
                                       




回复

使用道具 举报

懒得打字嘛,点击右侧快捷回复 【右侧内容,后台自定义】
您需要登录后才可以回帖 登录 | 立即加入

本版积分规则

Archiver|小黑屋| 蓝光电影网 |网站地图

Copyright © 2021 Comsenz Inc. Powered by 蓝光电影网

蓝光电影网

本站内容由用户自主分享和转载自互联网,转载目的在于传递更多信息,并不代表本网赞同其观点和对其真实性负责。

如有侵权、违反国家法律政策行为,请联系我们,我们会第一时间及时清除和处理!

举报反馈邮箱:[email protected]

快速回复 返回顶部 返回列表