找回密码

蓝光电影网

查看: 15|回复: 0

[喜剧] 优步危机/斯图伯 Stuber.2019.720p.BluRay.x264-DRONES 4.38GB

[复制链接]
蓝光币
382
发表于 2019-10-5 13:28:05 | 显示全部楼层 |阅读模式


◎译  名 优步危机 / 斯图伯 / 狂玩嘢时速(港) / 玩命优步(台)
◎片  名 Stuber
◎年  代 2019
◎产  地 美国
◎类  别 笑剧 / 行动
◎语  言 英语
◎上映日期 2019-07-12(美国)
◎IMDb评分  6.2/10 from 9167 users
◎IMDb链接  http://www.imdb.com/title/tt7734218
◎豆瓣评分 6.5/10 from 246 users
◎豆瓣链接 https://movie.douban.com/subject/27603782/
◎片  长 105分钟
◎导  演 迈克尔·道斯 Michael Dowse
◎编  剧 特里珀·克兰西 Tripper Clancy
◎主  演 戴夫·巴蒂斯塔 Dave Bautista
       库梅尔·南贾尼 Kumail Nanjiani
       伊科·乌艾斯 Iko Uwais
       贝蒂·吉尔平 Betty Gilpin
       米拉·索维诺 Mira Sorvino
       娜塔丽·莫瑞丝 Natalie Morales
       约书亚·米克尔 Joshua Mikel
       阿明·约瑟夫 Amin Joseph
       斯科特·劳伦斯 Scott Lawrence
       克里斯汀·霍恩 Christine Horn
       汉斯·马雷罗 Hans Marrero
       雷内?莫兰 Rene Moran

◎标  签 笑剧 | 行动 | 美国 | 2019 | 犯罪 | 搞笑 | 二十世纪福克斯 | 家庭
◎简  介  
  南贾尼饰演一位性情温顺的Uber司机,某天载的乘客是一位头发花白的差人,他正在追捕一位残暴的杀手。司机发现自己面临艰难考验,他必必要连结冷静,保证办事质量以获得五星好评。
  1. Video
  2. ID                                       : 1
  3. Format                                   : AVC
  4. Format/Info                              : Advanced Video Codec
  5. Format profile                           : [email protected]
  6. Format settings                          : CABAC / 5 Ref Frames
  7. Format settings, CABAC                   : Yes
  8. Format settings, Reference frames        : 5 frames
  9. Codec ID                                 : V_MPEG4/ISO/AVC
  10. Duration                                 : 1 h 33 min
  11. Bit rate                                 : 5 190 kb/s
  12. Width                                    : 1 280 pixels
  13. Height                                   : 536 pixels
  14. Display aspect ratio                     : 2.40:1
  15. Frame rate mode                          : Constant
  16. Frame rate                               : 23.976 (24000/1001) FPS
  17. Color space                              : YUV
  18. Chroma subsampling                       : 4:2:0
  19. Bit depth                                : 8 bits
  20. Scan type                                : Progressive
  21. Bits/(Pixel*Frame)                       : 0.316
  22. Stream size                              : 3.39 GiB (77%)
  23. Writing library                          : x264 core 158 r2984 3759fcb
  24. Encoding settings                        : cabac=1 / ref=5 / deblock=1:-3:-3 / analyse=0x3:0x113 / me=umh / subme=8 / psy=1 / psy_rd=1.00:0.00 / mixed_ref=1 / me_range=16 / chroma_me=1 / trellis=1 / 8x8dct=1 / cqm=0 / deadzone=21,11 / fast_pskip=1 / chroma_qp_offset=-2 / threads=17 / lookahead_threads=2 / sliced_threads=0 / nr=0 / decimate=1 / interlaced=0 / bluray_compat=0 / constrained_intra=0 / bframes=3 / b_pyramid=2 / b_adapt=1 / b_bias=0 / direct=3 / weightb=1 / open_gop=0 / weightp=2 / keyint=250 / keyint_min=23 / scenecut=40 / intra_refresh=0 / rc_lookahead=50 / rc=2pass / mbtree=1 / bitrate=5190 / ratetol=1.0 / qcomp=0.60 / qpmin=0 / qpmax=69 / qpstep=4 / cplxblur=20.0 / qblur=0.5 / ip_ratio=1.40 / aq=1:1.00
  25. Language                                 : English
  26. Default                                  : Yes
  27. Forced                                   : No

  28. Audio
  29. ID                                       : 2
  30. Format                                   : DTS
  31. Format/Info                              : Digital Theater Systems
  32. Codec ID                                 : A_DTS
  33. Duration                                 : 1 h 33 min
  34. Bit rate mode                            : Constant
  35. Bit rate                                 : 1 509 kb/s
  36. Channel(s)                               : 6 channels
  37. Channel layout                           : C L R Ls Rs LFE
  38. Sampling rate                            : 48.0 kHz
  39. Frame rate                               : 93.750 FPS (512 SPF)
  40. Bit depth                                : 24 bits
  41. Compression mode                         : Lossy
  42. Stream size                              : 1 008 MiB (23%)
  43. Language                                 : English
  44. Default                                  : Yes
  45. Forced                                   : No

  46. Menu
  47. 00:00:00.000                             : en:00:00:00.000
  48. 00:05:52.435                             : en:00:05:52.435
  49. 00:09:57.222                             : en:00:09:57.222
  50. 00:14:14.854                             : en:00:14:14.854
  51. 00:17:30.675                             : en:00:17:30.675
  52. 00:19:46.310                             : en:00:19:46.310
  53. 00:22:40.276                             : en:00:22:40.276
  54. 00:27:33.402                             : en:00:27:33.402
  55. 00:31:30.889                             : en:00:31:30.889
  56. 00:33:19.247                             : en:00:33:19.247
  57. 00:35:39.888                             : en:00:35:39.888
  58. 00:40:13.036                             : en:00:40:13.036
  59. 00:45:05.202                             : en:00:45:05.202
  60. 00:49:10.114                             : en:00:49:10.114
  61. 00:52:36.987                             : en:00:52:36.987
  62. 00:56:46.111                             : en:00:56:46.111
  63. 01:01:54.252                             : en:01:01:54.252
  64. 01:05:43.648                             : en:01:05:43.648
  65. 01:08:37.196                             : en:01:08:37.196
  66. 01:13:31.157                             : en:01:13:31.157
  67. 01:16:44.517                             : en:01:16:44.517
  68. 01:19:07.534                             : en:01:19:07.534
  69. 01:23:54.780                             : en:01:23:54.780
  70. 01:27:49.598                             : en:01:27:49.598
复制代码




                                       
                                       

                                       
                                       
                                       




回复

使用道具 举报

懒得打字嘛,点击右侧快捷回复 【右侧内容,后台自定义】
您需要登录后才可以回帖 登录 | 立即加入

本版积分规则

Archiver|小黑屋| 蓝光电影网 |网站地图

Copyright © 2021 Comsenz Inc. Powered by 蓝光电影网

蓝光电影网

本站内容由用户自主分享和转载自互联网,转载目的在于传递更多信息,并不代表本网赞同其观点和对其真实性负责。

如有侵权、违反国家法律政策行为,请联系我们,我们会第一时间及时清除和处理!

举报反馈邮箱:[email protected]

快速回复 返回顶部 返回列表