找回密码

蓝光电影网

查看: 6|回复: 0

[惊悚] 捕梦魔/捕魔网 Dreamkatcher.2020.720p.BluRay.x264-GUACAMOLE 3.23GB

[复制链接]
蓝光币
382
发表于 2021-2-21 18:01:26 | 显示全部楼层 |阅读模式


◎译  名 捕梦魔/捕魔网(台)
◎片  名 Dreamkatcher
◎年  代 2020
◎产  地 美国
◎类  别 惊悚 / 可骇
◎语  言 英语
◎上映日期 2020-04-28(美国)
◎IMDb评分  3.7/10 from 1546 users
◎IMDb链接  https://www.imdb.com/title/tt10553210/
◎豆瓣评分 3.8/10 from 259 users
◎豆瓣链接 https://movie.douban.com/subject/34805798/
◎片  长 85分钟
◎主  演 拉达·米切尔 Radha Mitchell
       亨利·托马斯 Henry Thomas
       林·沙烨 Lin Shaye
       约瑟夫·比沙拉 Joseph Bishara
◎标  签 可骇 | 美国 | 2020 | 惊悚 | 灵异 | 梦魔 | 可骇片 | 美国电影
◎简  介


  为了阻止他的噩梦,一个小男孩从一个奥秘的邻人那边偷走了一个追梦者,迫使他的家人把他从噩梦中救出来。
  1. Video
  2. ID                                       : 1
  3. Format                                   : AVC
  4. Format/Info                              : Advanced Video Codec
  5. Format profile                           : [email protected]
  6. Format settings                          : CABAC / 8 Ref Frames
  7. Format settings, CABAC                   : Yes
  8. Format settings, Reference frames        : 8 frames
  9. Codec ID                                 : V_MPEG4/ISO/AVC
  10. Duration                                 : 1 h 25 min
  11. Bit rate                                 : 4 773 kb/s
  12. Width                                    : 1 280 pixels
  13. Height                                   : 720 pixels
  14. Display aspect ratio                     : 16:9
  15. Frame rate mode                          : Constant
  16. Frame rate                               : 23.976 (24000/1001/189150) FPS
  17. Color space                              : YUV
  18. Chroma subsampling                       : 4:2:0
  19. Bit depth                                : 8 bits
  20. Scan type                                : Progressive
  21. Bits/(Pixel*Frame)                       : 0.216
  22. Stream size                              : 2.84 GiB (88%)
  23. Writing library                          : x264 core 161 r3048 b86ae3c
  24. Encoding settings                        : cabac=1 / ref=8 / deblock=1:-3:-3 / analyse=0x3:0x133 / me=umh / subme=9 / psy=1 / psy_rd=1.00:0.00 / mixed_ref=1 / me_range=16 / chroma_me=1 / trellis=2 / 8x8dct=1 / cqm=0 / deadzone=21,11 / fast_pskip=0 / chroma_qp_offset=-2 / threads=22 / lookahead_threads=1 / sliced_threads=0 / nr=0 / decimate=1 / interlaced=0 / bluray_compat=0 / constrained_intra=0 / bframes=3 / b_pyramid=2 / b_adapt=2 / b_bias=0 / direct=3 / weightb=1 / open_gop=0 / weightp=2 / keyint=250 / keyint_min=23 / scenecut=40 / intra_refresh=0 / rc_lookahead=60 / rc=crf / mbtree=1 / crf=17.0 / qcomp=0.60 / qpmin=0 / qpmax=69 / qpstep=4 / ip_ratio=1.40 / aq=3:1.00
  25. Default                                  : Yes
  26. Forced                                   : No
  27. Color range                              : Limited
  28. Matrix coefficients                      : BT.709

  29. Audio
  30. ID                                       : 2
  31. Format                                   : AC-3
  32. Format/Info                              : Audio Coding 3
  33. Commercial name                          : Dolby Digital
  34. Codec ID                                 : A_AC3
  35. Duration                                 : 1 h 25 min
  36. Bit rate mode                            : Constant
  37. Bit rate                                 : 640 kb/s
  38. Channel(s)                               : 6 channels
  39. Channel layout                           : L R C LFE Ls Rs
  40. Sampling rate                            : 48.0 kHz
  41. Frame rate                               : 31.250 FPS (1536 SPF)
  42. Compression mode                         : Lossy
  43. Stream size                              : 390 MiB (12%)
  44. Language                                 : English
  45. Service kind                             : Complete Main
  46. Default                                  : Yes
  47. Forced                                   : No

  48. Text #1
  49. ID                                       : 3
  50. Format                                   : PGS
  51. Muxing mode                              : zlib
  52. Codec ID                                 : S_HDMV/PGS
  53. Codec ID/Info                            : Picture based subtitle format used on BDs/HD-DVDs
  54. Duration                                 : 1 h 16 min
  55. Bit rate                                 : 23.7 kb/s
  56. Count of elements                        : 1515
  57. Stream size                              : 12.9 MiB (0%)
  58. Title                                    : Vobsubs
  59. Language                                 : German
  60. Default                                  : No
  61. Forced                                   : No

  62. Text #2
  63. ID                                       : 4
  64. Format                                   : PGS
  65. Muxing mode                              : zlib
  66. Codec ID                                 : S_HDMV/PGS
  67. Codec ID/Info                            : Picture based subtitle format used on BDs/HD-DVDs
  68. Duration                                 : 19 min 2 s
  69. Bit rate                                 : 1 933 b/s
  70. Count of elements                        : 14
  71. Stream size                              : 270 KiB (0%)
  72. Title                                    : Forcedg
  73. Language                                 : German
  74. Default                                  : No
  75. Forced                                   : No

  76. Menu
  77. 00:00:00.000                             : en:00:00:00.000
  78. 00:05:29.162                             : en:00:05:29.162
  79. 00:15:41.691                             : en:00:15:41.691
  80. 00:23:36.498                             : en:00:23:36.498
  81. 00:30:30.245                             : en:00:30:30.245
  82. 00:36:42.784                             : en:00:36:42.784
  83. 00:47:01.569                             : en:00:47:01.569
  84. 00:55:36.124                             : en:00:55:36.124
  85. 01:01:47.746                             : en:01:01:47.746
  86. 01:07:00.183                             : en:01:07:00.183
  87. 01:14:45.731                             : en:01:14:45.731
  88. 01:19:37.856                             : en:01:19:37.856
复制代码




                                       
                                       

                                       
                                       
                                       




回复

使用道具 举报

懒得打字嘛,点击右侧快捷回复 【右侧内容,后台自定义】
您需要登录后才可以回帖 登录 | 立即加入

本版积分规则

Archiver|小黑屋| 蓝光电影网 |网站地图

Copyright © 2021 Comsenz Inc. Powered by 蓝光电影网

蓝光电影网

本站内容由用户自主分享和转载自互联网,转载目的在于传递更多信息,并不代表本网赞同其观点和对其真实性负责。

如有侵权、违反国家法律政策行为,请联系我们,我们会第一时间及时清除和处理!

举报反馈邮箱:[email protected]

快速回复 返回顶部 返回列表