找回密码

蓝光电影网

查看: 13|回复: 0

[科幻] 突变异种 Forbidden.World.1982.1080p.BluRay.x264.DTS-FGT 6.98GB

[复制链接]
蓝光币
382
发表于 2020-12-2 09:26:39 | 显示全部楼层 |阅读模式


◎译  名 突变异种
◎片  名 Forbidden World
◎年  代 1982
◎产  地 美国
◎类  别 科幻 / 可骇
◎语  言 英语
◎上映日期 1982-12-09
◎IMDb评分  5.2/10 from 4316 users
◎IMDb链接  https://www.imdb.com/title/tt0083959/
◎豆瓣评分 5.2/10 from 164 users
◎豆瓣链接 https://movie.douban.com/subject/2067528/
◎片  长 77 分钟
◎编  剧 吉姆·温诺斯基 Jim Wynorski / R.J. 罗伯森 R.J. Robertson
◎主  演 迈克尔·鲍文 Michael Bowen
       斯科特·帕林 Scott Paulin
       琼·查德威克 June Chadwick
       林登·奇尔斯 Linden Chiles
       Fox Harris
◎标  签 可骇 | 科幻 | cult | 美国 | 变异 | B级片 | 美国电影 | 怪物
◎简  介


  为了避免过度开采所发生的食粮危机,银河系联邦观察局派出太空豪杰麦克观察在Xarbia行星做基因研讨的人类,可没想到尝试生物忽然暴走,并将它们逐一杀死,不幸的人们为了研讨基因食品而开辟了怪物,到头来反而成了怪物的下酒席……(很是耐看的一部怪物片,固然不是指里面的n多床戏内容……- -)
  
  转自:http://tieba.baidu.com/f?z=522463299&;ct=335544320&lm=0&sc=0&rn=30&tn=baiduPostBrowser&word=%BF%D6%B2%C0%C6%AC&pn=570
  1. Video
  2. ID                                       : 1
  3. Format                                   : AVC
  4. Format/Info                              : Advanced Video Codec
  5. Format profile                           : [email protected]
  6. Format settings                          : CABAC / 4 Ref Frames
  7. Format settings, CABAC                   : Yes
  8. Format settings, Reference frames        : 4 frames
  9. Codec ID                                 : V_MPEG4/ISO/AVC
  10. Duration                                 : 1 h 17 min
  11. Bit rate                                 : 11.5 Mb/s
  12. Width                                    : 1 920 pixels
  13. Height                                   : 1 080 pixels
  14. Display aspect ratio                     : 16:9
  15. Frame rate mode                          : Constant
  16. Frame rate                               : 23.976 (24000/1001/189150) FPS
  17. Color space                              : YUV
  18. Chroma subsampling                       : 4:2:0
  19. Bit depth                                : 8 bits
  20. Scan type                                : Progressive
  21. Bits/(Pixel*Frame)                       : 0.231
  22. Stream size                              : 6.03 GiB (86%)
  23. Writing library                          : x264 core 148 r2694 3b70645
  24. Encoding settings                        : cabac=1 / ref=4 / deblock=1:-2:-2 / analyse=0x3:0x113 / me=umh / subme=7 / psy=1 / psy_rd=1.00:0.15 / mixed_ref=1 / me_range=16 / chroma_me=1 / trellis=1 / 8x8dct=1 / cqm=0 / deadzone=21,11 / fast_pskip=1 / chroma_qp_offset=-3 / threads=40 / lookahead_threads=3 / sliced_threads=0 / nr=0 / decimate=1 / interlaced=0 / bluray_compat=0 / constrained_intra=0 / bframes=3 / b_pyramid=2 / b_adapt=2 / b_bias=0 / direct=3 / weightb=1 / open_gop=0 / weightp=2 / keyint=250 / keyint_min=25 / scenecut=40 / intra_refresh=0 / rc_lookahead=50 / rc=abr / mbtree=1 / bitrate=11500 / ratetol=1.0 / qcomp=0.60 / qpmin=0 / qpmax=69 / qpstep=4 / vbv_maxrate=31250 / vbv_bufsize=31250 / nal_hrd=none / filler=0 / ip_ratio=1.40 / aq=1:1.00
  25. Language                                 : English
  26. Default                                  : Yes
  27. Forced                                   : No

  28. Audio
  29. ID                                       : 2
  30. Format                                   : DTS
  31. Format/Info                              : Digital Theater Systems
  32. Codec ID                                 : A_DTS
  33. Duration                                 : 1 h 17 min
  34. Bit rate mode                            : Constant
  35. Bit rate                                 : 1 509 kb/s
  36. Channel(s)                               : 2 channels
  37. Channel layout                           : L R
  38. Sampling rate                            : 48.0 kHz
  39. Frame rate                               : 93.750 FPS (512 SPF)
  40. Bit depth                                : 24 bits
  41. Compression mode                         : Lossy
  42. Stream size                              : 833 MiB (12%)
  43. Language                                 : English
  44. Default                                  : Yes
  45. Forced                                   : No

  46. Menu
  47. 00:00:00.000                             : en:00:00:00.000
  48. 00:09:04.169                             : en:00:09:04.169
  49. 00:19:50.439                             : en:00:19:50.439
  50. 00:28:12.149                             : en:00:28:12.149
  51. 00:36:09.334                             : en:00:36:09.334
  52. 00:43:20.515                             : en:00:43:20.515
  53. 00:56:47.654                             : en:00:56:47.654
  54. 01:09:43.554                             : en:01:09:43.554
复制代码







                                       
                                       

                                       
                                       
                                       




回复

使用道具 举报

懒得打字嘛,点击右侧快捷回复 【右侧内容,后台自定义】
您需要登录后才可以回帖 登录 | 立即加入

本版积分规则

Archiver|小黑屋| 蓝光电影网 |网站地图

Copyright © 2021 Comsenz Inc. Powered by 蓝光电影网

蓝光电影网

本站内容由用户自主分享和转载自互联网,转载目的在于传递更多信息,并不代表本网赞同其观点和对其真实性负责。

如有侵权、违反国家法律政策行为,请联系我们,我们会第一时间及时清除和处理!

举报反馈邮箱:[email protected]

快速回复 返回顶部 返回列表