找回密码

蓝光电影网

查看: 19|回复: 0

[动作] 混沌行走/噪反 Chaos.Walking.2021.1080p.BluRay.x264-SOIGNEUR 13.58GB

[复制链接]
蓝光币
382
发表于 2021-5-26 21:32:52 | 显示全部楼层 |阅读模式
[img][/img]

◎译  名 混沌行走/噪反(台)/混沌安步/读心哗变(港)
◎片  名 Chaos Walking
◎年  代 2021
◎产  地 美国,加拿大
◎类  别 行动 / 科幻 / 冒险
◎语  言 英语
◎上映日期 2021(中国大陆) / 2021-03-05(美国)
◎豆瓣评分 5.2/10 from 3180 users
◎豆瓣链接 https://movie.douban.com/subject/6874475/
◎片  长 109分钟
◎导  演 道格·里曼 Doug Liman
◎编  剧 帕特里克·内斯 Patrick Ness / 克里斯托弗·D·福特 Christopher D. Ford / 林赛·比尔 Lindsey Beer / 约翰·李·汉考克 John Lee Hancock / 加里·斯皮内利 Gary Spinelli / 安德鲁·戈特利布 Andrew Gottlieb / 大卫·罗森 David Rosen
◎主  演 汤姆·赫兰德 Tom Holland
       黛西·雷德利 Daisy Ridley
       德米安·比齐尔 Demián Bichir
       大卫·奥伊罗 David Oyelowo
       科特·萨特 Kurt Sutter
       辛西娅·艾莉佛 Cynthia Erivo
       贝瑟妮·安妮·林德 Bethany Anne Lind
       麦斯·米科尔森 Mads Mikkelsen
       尼克·乔纳斯 Nick Jonas
       雷·迈克金农 Ray McKinnon
       文森特·莱克莱尔 Vincent Leclerc
       布兰·克洛卡雷尔 Blane Crockarell
       蒂龙·本斯金 Tyrone Benskin
       弗兰克·方丹 Frank Fontaine
       帕特里克·加洛 Patrick Garrow
       玛丽莲·迪恩-罗比齐 Mylène Dinh-Robic
       朱利安·瑞钦斯 Julian Richings
       迈克尔·戴森 Michael Dyson
       马克斯韦尔·麦卡比-洛克斯 Maxwell McCabe-Lokos
       迈克尔·亚穆什 Michael Yarmush
       布莱恩·亚历山大 Brian Alexander
       奥妮克·阿德莉 Olunike Adeliyi
       克劳迪娅·贝索 Claudia Besso
       奥斯卡·贾恩那达 óscar Jaenada
       塔拉·尼科迪莫 Tara Nicodemo
       哈里森·奥斯特菲尔德 Harrison Osterfield
       兰博基尼 Lamborghini
       维斯顿 Wiston
◎标  签 科幻 | 美国 | 2021 | 冒险 | 小说改编 | 青春 | 反乌托邦 | 剧情
◎简  介


  人类在与地球类似的悠远外星建立了新故里,但这个星球上却有一种病毒,汉子传染后可以听到其他人和动物的心声,每个汉子脑子里的想法都能被他人听到,人与人之间不存在隐私,新星球上的普伦提司镇的汉子们就不胜忍受自己的想法被人闻声。
  
  托德·赫维特(汤姆·赫兰德 饰)是诞生于这座小镇的 男孩,他的认知中小镇没有女人是由于该星球土著居民蓝光兽故里被人类加害时故意让人类传染了乐音病毒,他们还杀光了一切女性。托德对此深信不疑,直到他碰到一个女孩。
  
  托德在小镇四周的森林里碰到了一个叫维奥拉(黛西·雷德利 饰)的女孩,她来自悠远的地球,她的飞船因故坠毁在森林里,普伦提司镇的镇长在得知这个消息后立即展开对他俩的追杀,托德为了庇护女孩维奥拉只好一路出逃,起头了一段他意想不到且危机重重的星球冒险。
  1. Video
  2. ID                                       : 1
  3. Format                                   : AVC
  4. Format/Info                              : Advanced Video Codec
  5. Format profile                           : [email protected]
  6. Format settings                          : CABAC / 5 Ref Frames
  7. Format settings, CABAC                   : Yes
  8. Format settings, Reference frames        : 5 frames
  9. Codec ID                                 : V_MPEG4/ISO/AVC
  10. Duration                                 : 1 h 48 min
  11. Bit rate                                 : 12.6 Mb/s
  12. Width                                    : 1 920 pixels
  13. Height                                   : 802 pixels
  14. Display aspect ratio                     : 2.40:1
  15. Frame rate mode                          : Constant
  16. Frame rate                               : 23.976 (24000/1001/189150) FPS
  17. Color space                              : YUV
  18. Chroma subsampling                       : 4:2:0
  19. Bit depth                                : 8 bits
  20. Scan type                                : Progressive
  21. Bits/(Pixel*Frame)                       : 0.341
  22. Stream size                              : 9.57 GiB (70%)
  23. Writing library                          : x264 core 163 r3059 b684ebe
  24. Encoding settings                        : cabac=1 / ref=5 / deblock=1:-3:-3 / analyse=0x3:0x133 / me=umh / subme=10 / psy=1 / psy_rd=1.20:0.00 / mixed_ref=1 / me_range=24 / chroma_me=1 / trellis=2 / 8x8dct=1 / cqm=0 / deadzone=21,11 / fast_pskip=0 / chroma_qp_offset=-2 / threads=24 / lookahead_threads=4 / sliced_threads=0 / nr=0 / decimate=0 / interlaced=0 / bluray_compat=0 / constrained_intra=0 / bframes=8 / b_pyramid=2 / b_adapt=2 / b_bias=0 / direct=3 / weightb=1 / open_gop=0 / weightp=2 / keyint=250 / keyint_min=23 / scenecut=40 / intra_refresh=0 / rc_lookahead=60 / rc=crf / mbtree=1 / crf=14.0 / qcomp=0.60 / qpmin=0 / qpmax=69 / qpstep=4 / ip_ratio=1.40 / aq=3:0.90
  25. Default                                  : Yes
  26. Forced                                   : No
  27. Color range                              : Limited
  28. Matrix coefficients                      : BT.709

  29. Audio #1
  30. ID                                       : 2
  31. Format                                   : MLP FBA 16-ch
  32. Format/Info                              : Meridian Lossless Packing FBA with 16-channel presentation
  33. Commercial name                          : Dolby TrueHD with Dolby Atmos
  34. Codec ID                                 : A_TRUEHD
  35. Duration                                 : 1 h 48 min
  36. Bit rate mode                            : Variable
  37. Bit rate                                 : 4 405 kb/s
  38. Maximum bit rate                         : 6 912 kb/s
  39. Channel(s)                               : 8 channels
  40. Channel layout                           : L R C LFE Ls Rs Lb Rb
  41. Sampling rate                            : 48.0 kHz
  42. Frame rate                               : 1 200.000 FPS (40 SPF)
  43. Compression mode                         : Lossless
  44. Stream size                              : 3.35 GiB (25%)
  45. Language                                 : English
  46. Default                                  : Yes
  47. Forced                                   : No
  48. Number of dynamic objects                : 11
  49. Bed channel count                        : 1 channel
  50. Bed channel configuration                : LFE

  51. Audio #2
  52. ID                                       : 3
  53. Format                                   : AC-3
  54. Format/Info                              : Audio Coding 3
  55. Commercial name                          : Dolby Digital
  56. Format settings                          : Dolby Surround EX
  57. Codec ID                                 : A_AC3
  58. Duration                                 : 1 h 48 min
  59. Bit rate mode                            : Constant
  60. Bit rate                                 : 640 kb/s
  61. Channel(s)                               : 6 channels
  62. Channel layout                           : L R C LFE Ls Rs
  63. Sampling rate                            : 48.0 kHz
  64. Frame rate                               : 31.250 FPS (1536 SPF)
  65. Compression mode                         : Lossy
  66. Stream size                              : 499 MiB (4%)
  67. Language                                 : English
  68. Service kind                             : Complete Main
  69. Default                                  : No
  70. Forced                                   : No

  71. Audio #3
  72. ID                                       : 4
  73. Format                                   : AAC LC
  74. Format/Info                              : Advanced Audio Codec Low Complexity
  75. Codec ID                                 : A_AAC-2
  76. Duration                                 : 1 h 48 min
  77. Bit rate                                 : 123 kb/s
  78. Channel(s)                               : 2 channels
  79. Channel layout                           : L R
  80. Sampling rate                            : 48.0 kHz
  81. Frame rate                               : 46.875 FPS (1024 SPF)
  82. Compression mode                         : Lossy
  83. Delay relative to video                  : 20 ms
  84. Stream size                              : 96.0 MiB (1%)
  85. Title                                    : Commentary
  86. Language                                 : English
  87. Default                                  : No
  88. Forced                                   : No

  89. Text #1
  90. ID                                       : 5
  91. Format                                   : PGS
  92. Muxing mode                              : zlib
  93. Codec ID                                 : S_HDMV/PGS
  94. Codec ID/Info                            : Picture based subtitle format used on BDs/HD-DVDs
  95. Duration                                 : 1 h 37 min
  96. Bit rate                                 : 41.8 kb/s
  97. Count of elements                        : 3443
  98. Stream size                              : 29.2 MiB (0%)
  99. Title                                    : SDH
  100. Language                                 : English
  101. Default                                  : No
  102. Forced                                   : No

  103. Text #2
  104. ID                                       : 6
  105. Format                                   : PGS
  106. Muxing mode                              : zlib
  107. Codec ID                                 : S_HDMV/PGS
  108. Codec ID/Info                            : Picture based subtitle format used on BDs/HD-DVDs
  109. Duration                                 : 1 h 38 min
  110. Bit rate                                 : 33.8 kb/s
  111. Count of elements                        : 2631
  112. Stream size                              : 23.8 MiB (0%)
  113. Language                                 : Spanish
  114. Default                                  : No
  115. Forced                                   : No

  116. Menu
  117. 00:00:00.000                             : en:Chapter 01
  118. 00:05:16.858                             : en:Chapter 02
  119. 00:13:20.550                             : en:Chapter 03
  120. 00:20:18.634                             : en:Chapter 04
  121. 00:27:39.867                             : en:Chapter 05
  122. 00:35:54.110                             : en:Chapter 06
  123. 00:39:41.254                             : en:Chapter 07
  124. 00:45:45.409                             : en:Chapter 08
  125. 00:51:22.204                             : en:Chapter 09
  126. 00:56:34.558                             : en:Chapter 10
  127. 01:01:40.363                             : en:Chapter 11
  128. 01:07:13.446                             : en:Chapter 12
  129. 01:15:41.996                             : en:Chapter 13
  130. 01:22:30.821                             : en:Chapter 14
  131. 01:30:43.938                             : en:Chapter 15
  132. 01:36:45.800                             : en:Chapter 16
  133. 01:48:54.319                             : en:Chapter 17
复制代码




                                       
                                       

                                       
                                       
                                       




回复

使用道具 举报

懒得打字嘛,点击右侧快捷回复 【右侧内容,后台自定义】
您需要登录后才可以回帖 登录 | 立即加入

本版积分规则

Archiver|小黑屋| 蓝光电影网 |网站地图

Copyright © 2021 Comsenz Inc. Powered by 蓝光电影网

蓝光电影网

本站内容由用户自主分享和转载自互联网,转载目的在于传递更多信息,并不代表本网赞同其观点和对其真实性负责。

如有侵权、违反国家法律政策行为,请联系我们,我们会第一时间及时清除和处理!

举报反馈邮箱:[email protected]

快速回复 返回顶部 返回列表