找回密码

蓝光电影网

查看: 7|回复: 0

[喜剧] 我是间谍/吾系特务 I.Spy.2002.720p.BluRay.x264-PSYCHD 5.48GB

[复制链接]
蓝光币
382
发表于 2019-10-5 11:55:23 | 显示全部楼层 |阅读模式


◎译  名 我是特务 / 吾系特务 / 金牌特务
◎片  名 I Spy
◎年  代 2002
◎产  地 美国
◎类  别 笑剧 / 行动 / 惊悚 / 冒险
◎语  言 英语 / 匈牙利语 / 俄语
◎上映日期 2002-11-01
◎IMDb评分  5.4/10 from 46850 users
◎IMDb链接  http://www.imdb.com/title/tt0297181
◎豆瓣评分 6.2/10 from 1630 users
◎豆瓣链接 https://movie.douban.com/subject/1300162/
◎片  长 97 分钟
◎导  演 Betty Thomas
◎编  剧 Marianne Wibberley / Cormac Wibberley
◎主  演 Eddie Murphy
       Owen Wilson
       Famke Janssen
       马尔科姆·麦克道威尔 Malcolm McDowell

◎标  签 笑剧 | 美国 | 行动 | 特务 | 美国电影 | 2002 | OwenWilson | EddieMurphy
◎简  介  
  当美国政府迄今为止最为复杂、机密的战役机Switchblade真相机被偷走今后,美国的顶尖特务亚历克斯-斯科特(Alex Scott,欧文-威尔逊饰,Owen Wilson)受命前往侦破这个案子。他所料想不到的是将与一位清高自豪的天下拳击冠军凯利-鲁滨逊(Kelly Robinson,埃迪-墨菲饰,Eddie Murphy)一路去履行这项危险绝密的特务行动。他们的使命是:以应因的技能和滑稽,捉住天下上最为成功的不法军械商之一的阿诺德-冈达斯 (Arnold Gundars,马尔科姆-麦克道尔饰,Malcolm McDowell),挫败他针对这架飞机的诡计。
  1. Video
  2. ID                                       : 1
  3. Format                                   : AVC
  4. Format/Info                              : Advanced Video Codec
  5. Format profile                           : [email protected]
  6. Format settings                          : CABAC / 5 Ref Frames
  7. Format settings, CABAC                   : Yes
  8. Format settings, Reference frames        : 5 frames
  9. Codec ID                                 : V_MPEG4/ISO/AVC
  10. Duration                                 : 1 h 36 min
  11. Bit rate                                 : 6 592 kb/s
  12. Width                                    : 1 280 pixels
  13. Height                                   : 696 pixels
  14. Display aspect ratio                     : 1.85:1
  15. Frame rate mode                          : Constant
  16. Frame rate                               : 23.976 (24000/1001) FPS
  17. Color space                              : YUV
  18. Chroma subsampling                       : 4:2:0
  19. Bit depth                                : 8 bits
  20. Scan type                                : Progressive
  21. Bits/(Pixel*Frame)                       : 0.309
  22. Stream size                              : 4.34 GiB (79%)
  23. Writing library                          : x264 core 158 r2984 3759fcb
  24. Encoding settings                        : cabac=1 / ref=5 / deblock=1:-3:-3 / analyse=0x3:0x113 / me=umh / subme=8 / psy=1 / psy_rd=1.10:0.00 / mixed_ref=1 / me_range=24 / chroma_me=1 / trellis=2 / 8x8dct=1 / cqm=0 / deadzone=21,11 / fast_pskip=1 / chroma_qp_offset=-2 / threads=22 / lookahead_threads=3 / sliced_threads=0 / nr=0 / decimate=1 / interlaced=0 / bluray_compat=0 / constrained_intra=0 / bframes=3 / b_pyramid=2 / b_adapt=2 / b_bias=0 / direct=3 / weightb=1 / open_gop=0 / weightp=2 / keyint=240 / keyint_min=24 / scenecut=40 / intra_refresh=0 / rc_lookahead=50 / rc=2pass / mbtree=1 / bitrate=6592 / ratetol=1.0 / qcomp=0.60 / qpmin=0 / qpmax=69 / qpstep=4 / cplxblur=20.0 / qblur=0.5 / ip_ratio=1.40 / aq=3:0.70
  25. Default                                  : Yes
  26. Forced                                   : No
  27. Statistics Tags Issue                    : no_variable_data 1970-01-01 00:00:00 / no_variable_data 2010-02-22 21:41:29
  28. FromStats_BitRate                        : 6589580
  29. FromStats_Duration                       : 01:36:32.912000000
  30. FromStats_FrameCount                     : 138891
  31. FromStats_StreamSize                     : 4771607380

  32. Audio
  33. ID                                       : 2
  34. Format                                   : DTS
  35. Format/Info                              : Digital Theater Systems
  36. Codec ID                                 : A_DTS
  37. Duration                                 : 1 h 36 min
  38. Bit rate mode                            : Constant
  39. Bit rate                                 : 1 509 kb/s
  40. Channel(s)                               : 6 channels
  41. Channel layout                           : C L R Ls Rs LFE
  42. Sampling rate                            : 48.0 kHz
  43. Frame rate                               : 93.750 FPS (512 SPF)
  44. Bit depth                                : 24 bits
  45. Compression mode                         : Lossy
  46. Stream size                              : 1.02 GiB (19%)
  47. Language                                 : English
  48. Default                                  : Yes
  49. Forced                                   : No
  50. Statistics Tags Issue                    : no_variable_data 1970-01-01 00:00:00 / no_variable_data 2010-02-22 21:41:29
  51. FromStats_BitRate                        : 1509000
  52. FromStats_Duration                       : 01:36:32.160000000
  53. FromStats_FrameCount                     : 543015
  54. FromStats_StreamSize                     : 1092546180

  55. Text #1
  56. ID                                       : 3
  57. Format                                   : UTF-8
  58. Codec ID                                 : S_TEXT/UTF8
  59. Codec ID/Info                            : UTF-8 Plain Text
  60. Language                                 : English
  61. Default                                  : No
  62. Forced                                   : No
  63. Statistics Tags Issue                    : no_variable_data 1970-01-01 00:00:00 / no_variable_data 2010-02-22 21:41:29
  64. FromStats_BitRate                        : 99
  65. FromStats_Duration                       : 01:29:56.056000000
  66. FromStats_FrameCount                     : 1571
  67. FromStats_StreamSize                     : 67368

  68. Text #2
  69. ID                                       : 4
  70. Format                                   : UTF-8
  71. Codec ID                                 : S_TEXT/UTF8
  72. Codec ID/Info                            : UTF-8 Plain Text
  73. Title                                    : SDH
  74. Language                                 : English
  75. Default                                  : No
  76. Forced                                   : No
  77. Statistics Tags Issue                    : no_variable_data 1970-01-01 00:00:00 / no_variable_data 2010-02-22 21:41:29
  78. FromStats_BitRate                        : 95
  79. FromStats_Duration                       : 01:29:56.141000000
  80. FromStats_FrameCount                     : 1574
  81. FromStats_StreamSize                     : 64581

  82. Text #3
  83. ID                                       : 5
  84. Format                                   : UTF-8
  85. Codec ID                                 : S_TEXT/UTF8
  86. Codec ID/Info                            : UTF-8 Plain Text
  87. Language                                 : English
  88. Default                                  : No
  89. Forced                                   : No
  90. Statistics Tags Issue                    : no_variable_data 1970-01-01 00:00:00 / no_variable_data 2010-02-22 21:41:29
  91. FromStats_BitRate                        : 93
  92. FromStats_Duration                       : 01:29:56.141000000
  93. FromStats_FrameCount                     : 1521
  94. FromStats_StreamSize                     : 62742

  95. Menu
  96. 00:00:00.000                             : en:Chapter 01
  97. 00:10:02.227                             : en:Chapter 02
  98. 00:20:02.201                             : en:Chapter 03
  99. 00:30:02.801                             : en:Chapter 04
  100. 00:40:03.401                             : en:Chapter 05
  101. 00:50:04.627                             : en:Chapter 06
  102. 01:00:05.227                             : en:Chapter 07
  103. 01:10:05.201                             : en:Chapter 08
  104. 01:20:05.801                             : en:Chapter 09
  105. 01:30:06.401                             : en:Chapter 10
复制代码




                                       
                                       

                                       
                                       
                                       




回复

使用道具 举报

懒得打字嘛,点击右侧快捷回复 【右侧内容,后台自定义】
您需要登录后才可以回帖 登录 | 立即加入

本版积分规则

Archiver|小黑屋| 蓝光电影网 |网站地图

Copyright © 2021 Comsenz Inc. Powered by 蓝光电影网

蓝光电影网

本站内容由用户自主分享和转载自互联网,转载目的在于传递更多信息,并不代表本网赞同其观点和对其真实性负责。

如有侵权、违反国家法律政策行为,请联系我们,我们会第一时间及时清除和处理!

举报反馈邮箱:[email protected]

快速回复 返回顶部 返回列表