找回密码

蓝光电影网

查看: 13|回复: 0

[恐怖] 极端 Extremity.2018.1080p.BluRay.x264-HANDJOB 8.24GB

[复制链接]
蓝光币
386
发表于 2020-12-24 09:10:40 | 显示全部楼层 |阅读模式
[img][/img]

◎译  名 极端
◎片  名 Extremity
◎年  代 2018
◎产  地 加拿大
◎类  别 可骇
◎语  言 英语
◎上映日期 2018-09-17(美国洛杉矶) / 2019-01-11(日本)
◎IMDb评分  4.2/10 from 696 users
◎IMDb链接  https://www.imdb.com/title/tt6664700/
◎豆瓣评分 /10 from 0 users
◎豆瓣链接 https://movie.douban.com/subject/27062866/
◎片  长 103分钟
◎导  演 安东尼·迪布拉西 Anthony DiBlasi
◎编  剧 大卫·邦德 David Bond
◎主  演 富手麻妙 Ami Tomite
       尼克·普林西比 Nick Principe
◎标  签 可骇 | 纯洁血浆片 | 欧美电影 | 影院 | 加拿大电影 | Horror
◎简  介


  A young woman obsessed with horror, subjects herself to twelve hours of gruelling torment in an attempt to confront her own fears and conquer the tragic past which haunts her.
  1. Video
  2. ID                                       : 1
  3. Format                                   : AVC
  4. Format/Info                              : Advanced Video Codec
  5. Format profile                           : [email protected]
  6. Format settings                          : CABAC / 5 Ref Frames
  7. Format settings, CABAC                   : Yes
  8. Format settings, Reference frames        : 5 frames
  9. Codec ID                                 : V_MPEG4/ISO/AVC
  10. Duration                                 : 1 h 38 min
  11. Bit rate                                 : 11.5 Mb/s
  12. Width                                    : 1 920 pixels
  13. Height                                   : 800 pixels
  14. Display aspect ratio                     : 2.40:1
  15. Frame rate mode                          : Constant
  16. Frame rate                               : 23.976 (24000/1001/189150) FPS
  17. Color space                              : YUV
  18. Chroma subsampling                       : 4:2:0
  19. Bit depth                                : 8 bits
  20. Scan type                                : Progressive
  21. Bits/(Pixel*Frame)                       : 0.314
  22. Stream size                              : 7.92 GiB (96%)
  23. Writing library                          : x264 core 160 r3011 cde9a93
  24. Encoding settings                        : cabac=1 / ref=5 / deblock=1:-3:-3 / analyse=0x3:0x133 / me=umh / subme=11 / psy=1 / psy_rd=1.00:0.00 / mixed_ref=1 / me_range=32 / chroma_me=1 / trellis=2 / 8x8dct=1 / cqm=0 / deadzone=21,11 / fast_pskip=0 / chroma_qp_offset=-2 / threads=24 / lookahead_threads=6 / sliced_threads=0 / nr=0 / decimate=0 / interlaced=0 / bluray_compat=0 / constrained_intra=0 / bframes=16 / b_pyramid=2 / b_adapt=2 / b_bias=0 / direct=3 / weightb=1 / open_gop=0 / weightp=2 / keyint=240 / keyint_min=24 / scenecut=40 / intra_refresh=0 / rc_lookahead=60 / rc=crf / mbtree=0 / crf=17.8 / qcomp=0.60 / qpmin=0 / qpmax=69 / qpstep=4 / vbv_maxrate=62500 / vbv_bufsize=78125 / crf_max=0.0 / nal_hrd=none / filler=0 / ip_ratio=1.30 / pb_ratio=1.20 / aq=1:0.90
  25. Default                                  : Yes
  26. Forced                                   : No
  27. Color range                              : Limited
  28. Color primaries                          : BT.709
  29. Transfer characteristics                 : BT.709
  30. Matrix coefficients                      : BT.709
  31. Audio
  32. ID                                       : 2
  33. Format                                   : AC-3
  34. Format/Info                              : Audio Coding 3
  35. Commercial name                          : Dolby Digital
  36. Codec ID                                 : A_AC3
  37. Duration                                 : 1 h 38 min
  38. Bit rate mode                            : Constant
  39. Bit rate                                 : 448 kb/s
  40. Channel(s)                               : 6 channels
  41. Channel layout                           : L R C LFE Ls Rs
  42. Sampling rate                            : 48.0 kHz
  43. Frame rate                               : 31.250 FPS (1536 SPF)
  44. Compression mode                         : Lossy
  45. Stream size                              : 315 MiB (4%)
  46. Language                                 : English
  47. Service kind                             : Complete Main
  48. Default                                  : Yes
  49. Forced                                   : No
  50. Text #1
  51. ID                                       : 3
  52. Format                                   : UTF-8
  53. Codec ID                                 : S_TEXT/UTF8
  54. Codec ID/Info                            : UTF-8 Plain Text
  55. Duration                                 : 1 h 33 min
  56. Bit rate                                 : 37 b/s
  57. Count of elements                        : 1058
  58. Stream size                              : 25.6 KiB (0%)
  59. Language                                 : English
  60. Default                                  : No
  61. Forced                                   : No
  62. Text #2
  63. ID                                       : 4
  64. Format                                   : UTF-8
  65. Codec ID                                 : S_TEXT/UTF8
  66. Codec ID/Info                            : UTF-8 Plain Text
  67. Duration                                 : 1 h 33 min
  68. Bit rate                                 : 45 b/s
  69. Count of elements                        : 1231
  70. Stream size                              : 31.4 KiB (0%)
  71. Title                                    : Hard of Hearing
  72. Language                                 : English
  73. Default                                  : No
  74. Forced                                   : No
  75. Text #3
  76. ID                                       : 5
  77. Format                                   : PGS
  78. Codec ID                                 : S_HDMV/PGS
  79. Codec ID/Info                            : Picture based subtitle format used on BDs/HD-DVDs
  80. Duration                                 : 1 h 32 min
  81. Bit rate                                 : 19.8 kb/s
  82. Count of elements                        : 2174
  83. Stream size                              : 13.1 MiB (0%)
  84. Language                                 : Spanish
  85. Default                                  : No
  86. Forced                                   : No
  87. Menu
  88. 00:00:00.000                             : en:Chapter 01
  89. 00:07:15.726                             : en:Chapter 02
  90. 00:14:02.174                             : en:Chapter 03
  91. 00:22:42.778                             : en:Chapter 04
  92. 00:31:24.340                             : en:Chapter 05
  93. 00:39:12.767                             : en:Chapter 06
  94. 00:50:54.384                             : en:Chapter 07
  95. 00:59:21.599                             : en:Chapter 08
  96. 01:08:11.378                             : en:Chapter 09
  97. 01:16:37.551                             : en:Chapter 10
  98. 01:25:44.139                             : en:Chapter 11
  99. 01:34:02.511                             : en:Chapter 12
复制代码



                                       
                                       

                                       
                                       
                                       




回复

使用道具 举报

懒得打字嘛,点击右侧快捷回复 【右侧内容,后台自定义】
您需要登录后才可以回帖 登录 | 立即加入

本版积分规则

Archiver|小黑屋| 蓝光电影网 |网站地图

Copyright © 2021 Comsenz Inc. Powered by 蓝光电影网

蓝光电影网

本站内容由用户自主分享和转载自互联网,转载目的在于传递更多信息,并不代表本网赞同其观点和对其真实性负责。

如有侵权、违反国家法律政策行为,请联系我们,我们会第一时间及时清除和处理!

举报反馈邮箱:[email protected]

快速回复 返回顶部 返回列表