找回密码

蓝光电影网

查看: 6|回复: 0

[喜剧] 亚当斯一家的价值观/爱登士家庭 2 Addams.Family.Values.1993.720p.BluRay.X264-AMIABLE 5.51GB

[复制链接]
蓝光币
382
发表于 2019-10-4 18:32:56 | 显示全部楼层 |阅读模式


◎译  名 亚当斯一家的代价观 / 爱登士家庭 2 / 阿达一族
◎片  名 Addams Family Values
◎年  代 1993
◎产  地 美国
◎类  别 笑剧 / 惊悚 / 家庭 / 奇异
◎语  言 英语
◎上映日期 1993-11-19
◎IMDb评分  6.7/10 from 70740 users
◎IMDb链接  http://www.imdb.com/title/tt0106220
◎豆瓣评分 8.7/10 from 20404 users
◎豆瓣链接 https://movie.douban.com/subject/1299900/
◎片  长 94 分钟
◎导  演 巴里·索南菲尔德 Barry Sonnenfeld
◎编  剧 Charles Addams / 保罗·鲁德尼克 Paul Rudnick
◎主  演 克里斯汀·芭伦斯基 Christine Baranski

◎标  签 哥特 | 黑色诙谐 | 美国 | 笑剧 | 美国电影 | 魔幻 | 奇异 | 1993
◎简  介  
  亚当斯庄园多了一个刚诞生的婴儿,Morticia(Anjelica Huston 饰)被他搞得焦头烂额。Gomez(劳尔·朱力亚 Raul Julia 饰)雇了个保姆Debiie,她很讨亚当斯一家人的欢心。但Pugsley和Wednesday看穿她的专心,用来她是著名的“黑孀妇”,小时辰便杀死了她的怙恃,后来又持续为钱杀死了她的两个丈夫。但当孩子们还来不及密告Debbie时,Debbie已经将他们都送去了夏令营,和Fester叔叔成婚了。婚后,Debbie想尽法子想要把Fester叔叔杀死,还要伪装成一场意外,但每一次都没能得逞。而虽然夏令营很好玩,但孩子们不竭的惹教员生气,不停地破坏小朋友们的游戏氛围,为的就是教员能早点把他们送回家,好让他们能警告他们的家人:谨慎Debbie……
◎获奖情况  
  第66届奥斯卡金像奖(1994)
  最好艺术指导(提名) 马文·马奇 / 肯·亚当
  第47届英国电影学院奖(1994)
  电影奖 最好化装/发型(提名) 小弗雷德·C·布鲁 / 凯文·黑尼 / Fern Buchner / Katherine James
  1. Video
  2. ID                                       : 1
  3. Format                                   : AVC
  4. Format/Info                              : Advanced Video Codec
  5. Format profile                           : [email protected]
  6. Format settings                          : CABAC / 5 Ref Frames
  7. Format settings, CABAC                   : Yes
  8. Format settings, Reference frames        : 5 frames
  9. Codec ID                                 : V_MPEG4/ISO/AVC
  10. Duration                                 : 1 h 34 min
  11. Bit rate                                 : 6 793 kb/s
  12. Width                                    : 1 280 pixels
  13. Height                                   : 720 pixels
  14. Display aspect ratio                     : 16:9
  15. Frame rate mode                          : Constant
  16. Frame rate                               : 23.976 (24000/1001) FPS
  17. Color space                              : YUV
  18. Chroma subsampling                       : 4:2:0
  19. Bit depth                                : 8 bits
  20. Scan type                                : Progressive
  21. Bits/(Pixel*Frame)                       : 0.307
  22. Stream size                              : 4.36 GiB (80%)
  23. Writing library                          : x264 core 158 r2984 3759fcb
  24. Encoding settings                        : cabac=1 / ref=5 / deblock=1:-3:-3 / analyse=0x3:0x113 / me=umh / subme=8 / psy=1 / psy_rd=1.10:0.00 / mixed_ref=1 / me_range=24 / chroma_me=1 / trellis=2 / 8x8dct=1 / cqm=0 / deadzone=21,11 / fast_pskip=1 / chroma_qp_offset=-2 / threads=22 / lookahead_threads=3 / sliced_threads=0 / nr=0 / decimate=1 / interlaced=0 / bluray_compat=0 / constrained_intra=0 / bframes=3 / b_pyramid=2 / b_adapt=2 / b_bias=0 / direct=3 / weightb=1 / open_gop=0 / weightp=2 / keyint=240 / keyint_min=24 / scenecut=40 / intra_refresh=0 / rc_lookahead=50 / rc=2pass / mbtree=1 / bitrate=6793 / ratetol=1.0 / qcomp=0.60 / qpmin=0 / qpmax=69 / qpstep=4 / cplxblur=20.0 / qblur=0.5 / ip_ratio=1.40 / aq=3:0.70
  25. Default                                  : Yes
  26. Forced                                   : No
  27. Statistics Tags Issue                    : no_variable_data 1970-01-01 00:00:00 / no_variable_data 2010-02-22 21:41:29
  28. FromStats_BitRate                        : 6790749
  29. FromStats_Duration                       : 01:34:12.189000000
  30. FromStats_FrameCount                     : 135517
  31. FromStats_StreamSize                     : 4797824782

  32. Audio
  33. ID                                       : 2
  34. Format                                   : DTS
  35. Format/Info                              : Digital Theater Systems
  36. Codec ID                                 : A_DTS
  37. Duration                                 : 1 h 34 min
  38. Bit rate mode                            : Constant
  39. Bit rate                                 : 1 509 kb/s
  40. Channel(s)                               : 6 channels
  41. Channel layout                           : C L R Ls Rs LFE
  42. Sampling rate                            : 48.0 kHz
  43. Frame rate                               : 93.750 FPS (512 SPF)
  44. Bit depth                                : 24 bits
  45. Compression mode                         : Lossy
  46. Stream size                              : 1 017 MiB (18%)
  47. Language                                 : English
  48. Default                                  : Yes
  49. Forced                                   : No
  50. Statistics Tags Issue                    : no_variable_data 1970-01-01 00:00:00 / no_variable_data 2010-02-22 21:41:29
  51. FromStats_BitRate                        : 1509000
  52. FromStats_Duration                       : 01:34:12.192000000
  53. FromStats_FrameCount                     : 529893
  54. FromStats_StreamSize                     : 1066144716

  55. Text #1
  56. ID                                       : 3
  57. Format                                   : UTF-8
  58. Codec ID                                 : S_TEXT/UTF8
  59. Codec ID/Info                            : UTF-8 Plain Text
  60. Language                                 : English
  61. Default                                  : No
  62. Forced                                   : No
  63. Statistics Tags Issue                    : no_variable_data 1970-01-01 00:00:00 / no_variable_data 2010-02-22 21:41:29
  64. FromStats_BitRate                        : 59
  65. FromStats_Duration                       : 01:33:16.258000000
  66. FromStats_FrameCount                     : 1470
  67. FromStats_StreamSize                     : 41412

  68. Text #2
  69. ID                                       : 4
  70. Format                                   : UTF-8
  71. Codec ID                                 : S_TEXT/UTF8
  72. Codec ID/Info                            : UTF-8 Plain Text
  73. Title                                    : SDH
  74. Language                                 : English
  75. Default                                  : No
  76. Forced                                   : No
  77. Statistics Tags Issue                    : no_variable_data 1970-01-01 00:00:00 / no_variable_data 2010-02-22 21:41:29
  78. FromStats_BitRate                        : 64
  79. FromStats_Duration                       : 01:33:49.040000000
  80. FromStats_FrameCount                     : 1678
  81. FromStats_StreamSize                     : 45526

  82. Menu
  83. 00:00:00.000                             : en:Chapter 01
  84. 00:04:54.085                             : en:Chapter 02
  85. 00:10:20.411                             : en:Chapter 03
  86. 00:15:55.955                             : en:Chapter 04
  87. 00:20:20.553                             : en:Chapter 05
  88. 00:25:26.692                             : en:Chapter 06
  89. 00:38:26.304                             : en:Chapter 07
  90. 00:41:46.129                             : en:Chapter 08
  91. 00:44:27.248                             : en:Chapter 09
  92. 00:54:10.497                             : en:Chapter 10
  93. 00:58:03.063                             : en:Chapter 11
  94. 01:03:46.948                             : en:Chapter 12
  95. 01:15:05.459                             : en:Chapter 13
  96. 01:19:09.870                             : en:Chapter 14
  97. 01:24:37.155                             : en:Chapter 15
  98. 01:28:03.862                             : en:Chapter 16
复制代码




                                       
                                       

                                       
                                       
                                       




回复

使用道具 举报

懒得打字嘛,点击右侧快捷回复 【右侧内容,后台自定义】
您需要登录后才可以回帖 登录 | 立即加入

本版积分规则

Archiver|小黑屋| 蓝光电影网 |网站地图

Copyright © 2021 Comsenz Inc. Powered by 蓝光电影网

蓝光电影网

本站内容由用户自主分享和转载自互联网,转载目的在于传递更多信息,并不代表本网赞同其观点和对其真实性负责。

如有侵权、违反国家法律政策行为,请联系我们,我们会第一时间及时清除和处理!

举报反馈邮箱:[email protected]

快速回复 返回顶部 返回列表