找回密码

蓝光电影网

查看: 11|回复: 0

[喜剧] 下妻物语 Kamikaze.Girls.2004.1080p.BluRay.x264-AVCHD 6.55GB

[复制链接]
蓝光币
386
发表于 2020-8-20 09:50:33 | 显示全部楼层 |阅读模式
◎译  名 下妻物语 / Kamikaze Girls / Shimotsuma monogatari
◎片  名 下妻物语 下妻物語
◎年  代 2004
◎国  家 日本
◎类  别 笑剧
◎语  言 日语
◎上映日期 2004-05-29(日本)
◎IMDb评分  7.2/10 from 6,779 users
◎IMDb链接  http://www.imdb.com/title/tt0416220/
◎豆瓣评分 7.9/10 from  users
◎豆瓣链接 https://movie.douban.com/subject/1388175/
◎片  长 102 分钟(日本)
◎导  演 中岛哲也
◎主  演 深田恭子
      土屋安娜
      宫迫博之
      筱原凉子
      阿部隆史
      树木希林
      小池荣子
◎简  介

 
  17岁的龙崎桃子(深田恭子饰)住在茨城县下妻,她喜好洛可可气概的打扮,并向往中世纪的法国。和桃子同校的高二女生白百合草莓(土屋安娜饰),是一个成天骑侧重型摩托车的“飙车帮恶女”。
一次机遇偶合,桃子和草莓偶然结识对方,她们对相互布满了猎奇,而且都不大白在这小地方怎样会 有对方这样的女孩。尔后草莓经常来造访桃子,她关注桃子,并对她的打扮评头论足,但对峙己见的桃子不为所动。草莓需要去一趟专为大姐头建造特攻服的打扮店见识下,她希望自己可以穿上特攻服加入一个先辈的隐退仪式。她们没能找到,但桃子居然特地为草莓缝制特攻服,成为一面之交的她们还会碰到什么困难呢?
◎获奖情况 
  第28届日本电影学院奖 (2005)
  最好女配角(提名) 深田恭子
  最好女配角(提名) 土屋安娜
  最好新人 土屋安娜
  第29届报知映画赏 (2004)
  最好新人奖 土屋安娜
  1. Video
  2. ID                                       : 1
  3. Format                                   : AVC
  4. Format/Info                              : Advanced Video Codec
  5. Format profile                           : [email protected]
  6. Format settings                          : CABAC / 4 Ref Frames
  7. Format settings, CABAC                   : Yes
  8. Format settings, Reference frames        : 4 frames
  9. Codec ID                                 : V_MPEG4/ISO/AVC
  10. Duration                                 : 1 h 42 min
  11. Bit rate                                 : 8 730 kb/s
  12. Width                                    : 1 920 pixels
  13. Height                                   : 1 032 pixels
  14. Display aspect ratio                     : 1.85:1
  15. Frame rate mode                          : Constant
  16. Frame rate                               : 23.976 (23976/1000/189150) FPS
  17. Color space                              : YUV
  18. Chroma subsampling                       : 4:2:0
  19. Bit depth                                : 8 bits
  20. Scan type                                : Progressive
  21. Bits/(Pixel*Frame)                       : 0.184
  22. Stream size                              : 6.10 GiB (93%)
  23. Writing library                          : x264 core 93 r1538 bd72d46
  24. Encoding settings                        : cabac=1 / ref=4 / deblock=1:0:0 / analyse=0x3:0x133 / me=umh / subme=8 / psy=1 / psy_rd=1.00:0.00 / mixed_ref=1 / me_range=16 / chroma_me=1 / trellis=1 / 8x8dct=1 / cqm=0 / deadzone=21,11 / fast_pskip=0 / chroma_qp_offset=-2 / threads=12 / sliced_threads=0 / nr=0 / decimate=1 / interlaced=0 / constrained_intra=0 / bframes=3 / b_pyramid=2 / b_adapt=1 / b_bias=0 / direct=1 / wpredb=1 / wpredp=2 / keyint=250 / keyint_min=25 / scenecut=40 / intra_refresh=0 / rc_lookahead=40 / rc=2pass / mbtree=1 / bitrate=8730 / ratetol=1.0 / qcomp=0.60 / qpmin=10 / qpmax=51 / qpstep=4 / cplxblur=20.0 / qblur=0.5 / ip_ratio=1.40 / aq=1:1.00
  25. Language                                 : English
  26. Default                                  : No
  27. Forced                                   : No

  28. Audio
  29. ID                                       : 2
  30. Format                                   : AC-3
  31. Format/Info                              : Audio Coding 3
  32. Commercial name                          : Dolby Digital
  33. Codec ID                                 : A_AC3
  34. Duration                                 : 1 h 42 min
  35. Bit rate mode                            : Constant
  36. Bit rate                                 : 448 kb/s
  37. Channel(s)                               : 6 channels
  38. Channel layout                           : L R C LFE Ls Rs
  39. Sampling rate                            : 48.0 kHz
  40. Frame rate                               : 31.250 FPS (1536 SPF)
  41. Compression mode                         : Lossy
  42. Stream size                              : 328 MiB (5%)
  43. Service kind                             : Complete Main
  44. Default                                  : Yes
  45. Forced                                   : No

  46. Text
  47. ID                                       : 3
  48. Format                                   : UTF-8
  49. Codec ID                                 : S_TEXT/UTF8
  50. Codec ID/Info                            : UTF-8 Plain Text
  51. Default                                  : Yes
  52. Forced                                   : No
复制代码






                                       
                                       

                                       
                                       
                                       




回复

使用道具 举报

懒得打字嘛,点击右侧快捷回复 【右侧内容,后台自定义】
您需要登录后才可以回帖 登录 | 立即加入

本版积分规则

Archiver|小黑屋| 蓝光电影网 |网站地图

Copyright © 2021 Comsenz Inc. Powered by 蓝光电影网

蓝光电影网

本站内容由用户自主分享和转载自互联网,转载目的在于传递更多信息,并不代表本网赞同其观点和对其真实性负责。

如有侵权、违反国家法律政策行为,请联系我们,我们会第一时间及时清除和处理!

举报反馈邮箱:[email protected]

快速回复 返回顶部 返回列表