找回密码

蓝光电影网

查看: 15|回复: 0

[恐怖] 古妖情魔 The.Etruscan.Kills.Again.1972.DUBBED.1080p.BluRay.x264-GUACAMOLE 8.57GB

[复制链接]
蓝光币
386
发表于 2020-12-23 23:30:24 | 显示全部楼层 |阅读模式
[img][/img]

◎译  名 古妖情魔/Das Geheimnis des gelben Grabes/The Dead Are Alive
◎片  名 L'etrusco uccide ancora
◎年  代 1972
◎产  地 意大利,西德,南斯拉夫
◎类  别 可骇
◎语  言 意大利语
◎上映日期 1972-06-22
◎IMDb评分  5.5/10 from 650 users
◎IMDb链接  https://www.imdb.com/title/tt0068625/
◎豆瓣评分 /10 from 0 users
◎豆瓣链接 https://movie.douban.com/subject/3119434/
◎片  长 105 分钟
◎导  演 阿曼多·克里斯皮诺 Armando Crispino
◎编  剧 Bryan Edgar Wallace / 阿曼多·克里斯皮诺 Armando Crispino
◎主  演 德罗热达·铎洛斯 Rosita Torosh
       卡拉·曼奇尼 Carla Mancini
       恩佐·塔拉肖 Enzo Tarascio
       Daniela Surina
       马里奥·马南扎纳 Mario Maranzana
       卡洛·德梅约 Carlo De Mejo
       霍斯特·弗兰克 Horst Frank
       Aristide Caporale
       Rodolfo Bigotti
       约翰·马利 John Marley
       恩佐·塞鲁西科 Enzo Cerusico
       阿历克斯·考德 Alex Cord
       娜佳·蒂勒 Nadja Tiller
       萨曼莎·艾加 Samantha Eggar
◎标  签 意大利 | 可骇 | obscure | giallo | Italy | 1970 | 被轻忽的电影 | 70
◎简  介


  暂无相关剧情先容
  1. Video
  2. ID                                       : 1
  3. Format                                   : AVC
  4. Format/Info                              : Advanced Video Codec
  5. Format profile                           : [email protected]
  6. Format settings                          : CABAC / 5 Ref Frames
  7. Format settings, CABAC                   : Yes
  8. Format settings, Reference frames        : 5 frames
  9. Codec ID                                 : V_MPEG4/ISO/AVC
  10. Duration                                 : 1 h 46 min
  11. Bit rate                                 : 11.3 Mb/s
  12. Width                                    : 1 920 pixels
  13. Height                                   : 816 pixels
  14. Display aspect ratio                     : 2.35:1
  15. Frame rate mode                          : Constant
  16. Frame rate                               : 23.976 (24000/1001/189150) FPS
  17. Color space                              : YUV
  18. Chroma subsampling                       : 4:2:0
  19. Bit depth                                : 8 bits
  20. Scan type                                : Progressive
  21. Bits/(Pixel*Frame)                       : 0.301
  22. Stream size                              : 8.40 GiB (98%)
  23. Writing library                          : x264 core 161 r3027 4121277
  24. Encoding settings                        : cabac=1 / ref=5 / deblock=1:-3:-3 / analyse=0x3:0x133 / me=umh / subme=9 / psy=1 / psy_rd=1.00:0.00 / mixed_ref=1 / me_range=16 / chroma_me=1 / trellis=2 / 8x8dct=1 / cqm=0 / deadzone=21,11 / fast_pskip=0 / chroma_qp_offset=-2 / threads=24 / lookahead_threads=2 / sliced_threads=0 / nr=0 / decimate=1 / interlaced=0 / bluray_compat=0 / constrained_intra=0 / bframes=3 / b_pyramid=2 / b_adapt=2 / b_bias=0 / direct=3 / weightb=1 / open_gop=0 / weightp=2 / keyint=250 / keyint_min=23 / scenecut=40 / intra_refresh=0 / rc_lookahead=60 / rc=crf / mbtree=1 / crf=19.0 / qcomp=0.60 / qpmin=0 / qpmax=69 / qpstep=4 / ip_ratio=1.40 / aq=3:0.60
  25. Default                                  : Yes
  26. Forced                                   : No
  27. Color range                              : Limited
  28. Color primaries                          : BT.709
  29. Transfer characteristics                 : BT.709
  30. Matrix coefficients                      : BT.709

  31. Audio
  32. ID                                       : 2
  33. Format                                   : AC-3
  34. Format/Info                              : Audio Coding 3
  35. Commercial name                          : Dolby Digital
  36. Codec ID                                 : A_AC3
  37. Duration                                 : 1 h 46 min
  38. Bit rate mode                            : Constant
  39. Bit rate                                 : 224 kb/s
  40. Channel(s)                               : 2 channels
  41. Channel layout                           : L R
  42. Sampling rate                            : 48.0 kHz
  43. Frame rate                               : 31.250 FPS (1536 SPF)
  44. Compression mode                         : Lossy
  45. Stream size                              : 170 MiB (2%)
  46. Language                                 : English
  47. Service kind                             : Complete Main
  48. Default                                  : Yes
  49. Forced                                   : No

  50. Menu
  51. 00:00:00.000                             : en:00:00:00.000
  52. 00:09:48.087                             : en:00:09:48.087
  53. 00:23:13.267                             : en:00:23:13.267
  54. 00:37:37.422                             : en:00:37:37.422
  55. 00:51:48.522                             : en:00:51:48.522
  56. 01:10:36.149                             : en:01:10:36.149
  57. 01:27:11.435                             : en:01:27:11.435
  58. 01:43:53.310                             : en:01:43:53.310
复制代码



                                       
                                       

                                       
                                       
                                       




回复

使用道具 举报

懒得打字嘛,点击右侧快捷回复 【右侧内容,后台自定义】
您需要登录后才可以回帖 登录 | 立即加入

本版积分规则

Archiver|小黑屋| 蓝光电影网 |网站地图

Copyright © 2021 Comsenz Inc. Powered by 蓝光电影网

蓝光电影网

本站内容由用户自主分享和转载自互联网,转载目的在于传递更多信息,并不代表本网赞同其观点和对其真实性负责。

如有侵权、违反国家法律政策行为,请联系我们,我们会第一时间及时清除和处理!

举报反馈邮箱:[email protected]

快速回复 返回顶部 返回列表