找回密码

蓝光电影网

查看: 6|回复: 0

[科幻] 末日后的宇宙碎片 Crumbs.2015.1080p.BluRay.x264-GAZER 6.59GB

[复制链接]
蓝光币
382
发表于 2020-12-1 10:40:50 | 显示全部楼层 |阅读模式


◎译  名 末往后的宇宙碎片
◎片  名 Crumbs
◎年  代 2015
◎产  地 西班牙/芬兰/埃塞俄比亚
◎类  别 科幻 / 悬疑 / 奇异
◎语  言 阿姆哈拉语,南非语
◎上映日期 2015-07-03(台北电影节) / 2015-10-23(美国)
◎IMDb评分  6/10 from 509 users
◎IMDb链接  https://www.imdb.com/title/tt4362764/
◎豆瓣评分 5.5/10 from 188 users
◎豆瓣链接 https://movie.douban.com/subject/26307758/
◎片  长 68分钟
◎导  演 米格尔·兰索 Miguel Llansó
◎编  剧 米格尔·兰索 Miguel Llansó / 丹尼尔·沃尔库 Daniel Worku
◎主  演 丹尼尔·塔德塞 Daniel Tadesse
       策加耶·阿贝格兹 Tsegaye Abegaz
       希泰·亚伯拉 Shitaye Abraha
       勒布·贝克勒 Nebeyu Bekele
       门格斯图·伯哈努 Mengistu Berhanu
       格图·菲沙 Getu Fixa
       吉尔马·盖布里荷沃 Girma Gebrehiwot
       季诺·皮尼罗 Quino Pi?ero
       Shambel Basha Getachew
◎标  签 科幻 | 西班牙 | 2015 | 埃塞俄比亚 | 奇异 | 芬兰 | 剧情 | 2016北影节
◎简  介


  文化灭绝的大战闭幕后,一对男女独安闲杳无人烟的废墟中相依为命,但天涯高挂的庞大太空船、陈旧保龄球馆裡的各类希奇现象环抱著两人,不祥预兆频频显现。
  
  仅花费二十余万美金建造,全片选在埃塞俄比亚北部几近无人居住、对交际通隔离的鬼城达洛尔拍摄,将怪石嶙峋的大地奇景与颓敝残落的陈腐遗址一览无余,擦撞出荒诞扭曲的超现实风景。
◎获奖情况
  第44届鹿特丹国际电影节 ?(2015)
  国际影评人同盟奖(提名)
  1. Video
  2. ID                                       : 1
  3. Format                                   : AVC
  4. Format/Info                              : Advanced Video Codec
  5. Format profile                           : [email protected]
  6. Format settings                          : CABAC / 5 Ref Frames
  7. Format settings, CABAC                   : Yes
  8. Format settings, Reference frames        : 5 frames
  9. Codec ID                                 : V_MPEG4/ISO/AVC
  10. Duration                                 : 1 h 11 min
  11. Bit rate                                 : 10.3 Mb/s
  12. Width                                    : 1 920 pixels
  13. Height                                   : 804 pixels
  14. Display aspect ratio                     : 2.40:1
  15. Frame rate mode                          : Constant
  16. Frame rate                               : 23.976 (24000/1001/189150) FPS
  17. Color space                              : YUV
  18. Chroma subsampling                       : 4:2:0
  19. Bit depth                                : 8 bits
  20. Scan type                                : Progressive
  21. Bits/(Pixel*Frame)                       : 0.278
  22. Stream size                              : 5.11 GiB (78%)
  23. Writing library                          : x264 core 161 r3027 4121277
  24. Encoding settings                        : cabac=1 / ref=5 / deblock=1:-3:-3 / analyse=0x3:0x133 / me=umh / subme=10 / psy=1 / psy_rd=1.20:0.00 / mixed_ref=1 / me_range=24 / chroma_me=1 / trellis=2 / 8x8dct=1 / cqm=0 / deadzone=21,11 / fast_pskip=0 / chroma_qp_offset=-2 / threads=24 / lookahead_threads=4 / sliced_threads=0 / nr=0 / decimate=0 / interlaced=0 / bluray_compat=0 / constrained_intra=0 / bframes=8 / b_pyramid=2 / b_adapt=2 / b_bias=0 / direct=3 / weightb=1 / open_gop=0 / weightp=2 / keyint=250 / keyint_min=23 / scenecut=40 / intra_refresh=0 / rc_lookahead=60 / rc=crf / mbtree=1 / crf=16.0 / qcomp=0.60 / qpmin=0 / qpmax=69 / qpstep=4 / ip_ratio=1.40 / aq=3:0.90
  25. Default                                  : Yes
  26. Forced                                   : No
  27. Color range                              : Limited
  28. Matrix coefficients                      : BT.709

  29. Audio
  30. ID                                       : 2
  31. Format                                   : DTS XLL
  32. Format/Info                              : Digital Theater Systems
  33. Commercial name                          : DTS-HD Master Audio
  34. Codec ID                                 : A_DTS
  35. Duration                                 : 1 h 11 min
  36. Bit rate mode                            : Variable
  37. Bit rate                                 : 2 975 kb/s
  38. Channel(s)                               : 6 channels
  39. Channel layout                           : C L R Ls Rs LFE
  40. Sampling rate                            : 48.0 kHz
  41. Frame rate                               : 93.750 FPS (512 SPF)
  42. Bit depth                                : 24 bits
  43. Compression mode                         : Lossless
  44. Stream size                              : 1.48 GiB (22%)
  45. Language                                 : Amharic
  46. Default                                  : Yes
  47. Forced                                   : No

  48. Text
  49. ID                                       : 3
  50. Format                                   : PGS
  51. Muxing mode                              : zlib
  52. Codec ID                                 : S_HDMV/PGS
  53. Codec ID/Info                            : Picture based subtitle format used on BDs/HD-DVDs
  54. Duration                                 : 1 h 0 min
  55. Bit rate                                 : 12.1 kb/s
  56. Count of elements                        : 698
  57. Stream size                              : 5.22 MiB (0%)
  58. Language                                 : English
  59. Default                                  : No
  60. Forced                                   : No

  61. Menu
  62. 00:00:00.000                             : en:Chapter 01
  63. 00:05:13.605                             : en:Chapter 02
  64. 00:13:00.530                             : en:Chapter 03
  65. 00:17:49.610                             : en:Chapter 04
  66. 00:24:28.467                             : en:Chapter 05
  67. 00:29:59.256                             : en:Chapter 06
  68. 00:36:32.357                             : en:Chapter 07
  69. 00:42:44.604                             : en:Chapter 08
  70. 00:48:58.144                             : en:Chapter 09
  71. 00:52:10.669                             : en:Chapter 10
  72. 00:58:37.013                             : en:Chapter 11
  73. 01:04:46.382                             : en:Chapter 12
复制代码




                                       
                                       

                                       
                                       
                                       




回复

使用道具 举报

懒得打字嘛,点击右侧快捷回复 【右侧内容,后台自定义】
您需要登录后才可以回帖 登录 | 立即加入

本版积分规则

Archiver|小黑屋| 蓝光电影网 |网站地图

Copyright © 2021 Comsenz Inc. Powered by 蓝光电影网

蓝光电影网

本站内容由用户自主分享和转载自互联网,转载目的在于传递更多信息,并不代表本网赞同其观点和对其真实性负责。

如有侵权、违反国家法律政策行为,请联系我们,我们会第一时间及时清除和处理!

举报反馈邮箱:[email protected]

快速回复 返回顶部 返回列表