找回密码

蓝光电影网

查看: 12|回复: 0

[喜剧] 偷心计划 Two.If.by.Sea.1996.720p.BluRay.x264-GUACAMOLE 3.28GB

[复制链接]
蓝光币
382
发表于 2019-10-1 22:06:46 | 显示全部楼层 |阅读模式


◎译  名 偷心计划 / Stolen Hearts / 恋爱失窃事务
◎片  名 Two if by Sea
◎年  代 1996
◎产  地 美国
◎类  别 笑剧 / 恋爱
◎语  言 英语
◎上映日期 1996-01-12
◎IMDb评分  5.3/10 from 5149 users
◎IMDb链接  http://www.imdb.com/title/tt0118002
◎豆瓣评分 6.7/10 from 42 users
◎豆瓣链接 https://movie.douban.com/subject/1297108/
◎片  长 96 分钟
◎导  演 Bill Bennett
◎编  剧 Ann Lembeck / 丹尼斯 劳瑞 (Denis Leary) / 迈克·阿姆斯特朗 Mike Armstrong
◎主  演 Denis Leary
       Sandra Bullock

◎标  签 美国 | SandraBullock | 恋爱 | 愛情 | 笑剧 | 美国电影 | 1996 | 美國
◎简  介  
  Frank O'Brien, a petty thief, and his 7-year-long girlfriend Roz want to put an end to their unsteady lifestyle and just do that _last_ job, which involves stealing a valuable painting. Frank takes Roz to an island on the coast of New England, where he wants to sell the painting and also hopes that their sagging relationship will get a positive push back up. Not everything goes as planned, as some thugs and the FBI try to recover the painting and Roz gets attracted not only to the landscape...
  1. Video
  2. ID                                       : 1
  3. Format                                   : AVC
  4. Format/Info                              : Advanced Video Codec
  5. Format profile                           : [email protected]
  6. Format settings                          : CABAC / 5 Ref Frames
  7. Format settings, CABAC                   : Yes
  8. Format settings, Reference frames        : 5 frames
  9. Codec ID                                 : V_MPEG4/ISO/AVC
  10. Duration                                 : 1 h 35 min
  11. Bit rate                                 : 4 201 kb/s
  12. Width                                    : 1 280 pixels
  13. Height                                   : 696 pixels
  14. Display aspect ratio                     : 1.85:1
  15. Frame rate mode                          : Constant
  16. Frame rate                               : 23.976 (24000/1001) FPS
  17. Color space                              : YUV
  18. Chroma subsampling                       : 4:2:0
  19. Bit depth                                : 8 bits
  20. Scan type                                : Progressive
  21. Bits/(Pixel*Frame)                       : 0.197
  22. Stream size                              : 2.81 GiB (86%)
  23. Writing library                          : x264 core 157 r2969 d4099dd
  24. Encoding settings                        : cabac=1 / ref=5 / deblock=1:0:0 / analyse=0x3:0x113 / me=umh / subme=8 / psy=1 / psy_rd=1.00:0.00 / mixed_ref=1 / me_range=16 / chroma_me=1 / trellis=2 / 8x8dct=1 / cqm=0 / deadzone=21,11 / fast_pskip=0 / chroma_qp_offset=-2 / threads=22 / lookahead_threads=3 / sliced_threads=0 / nr=0 / decimate=1 / interlaced=0 / bluray_compat=0 / constrained_intra=0 / bframes=3 / b_pyramid=2 / b_adapt=1 / b_bias=0 / direct=1 / weightb=1 / open_gop=0 / weightp=2 / keyint=250 / keyint_min=23 / scenecut=40 / intra_refresh=0 / rc_lookahead=50 / rc=2pass / mbtree=1 / bitrate=4201 / ratetol=1.0 / qcomp=0.60 / qpmin=0 / qpmax=69 / qpstep=4 / cplxblur=20.0 / qblur=0.5 / ip_ratio=1.40 / aq=1:1.00
  25. Default                                  : Yes
  26. Forced                                   : No

  27. Audio
  28. ID                                       : 2
  29. Format                                   : AC-3
  30. Format/Info                              : Audio Coding 3
  31. Commercial name                          : Dolby Digital
  32. Codec ID                                 : A_AC3
  33. Duration                                 : 1 h 44 min
  34. Bit rate mode                            : Constant
  35. Bit rate                                 : 640 kb/s
  36. Channel(s)                               : 2 channels
  37. Channel layout                           : L R
  38. Sampling rate                            : 48.0 kHz
  39. Frame rate                               : 31.250 FPS (1536 SPF)
  40. Bit depth                                : 16 bits
  41. Compression mode                         : Lossy
  42. Stream size                              : 479 MiB (14%)
  43. Language                                 : English
  44. Service kind                             : Complete Main
  45. Default                                  : Yes
  46. Forced                                   : No

  47. Menu
  48. 00:00:00.000                             : en:00:00:00.000
  49. 00:08:12.492                             : en:00:08:12.492
  50. 00:15:10.910                             : en:00:15:10.910
  51. 00:23:04.383                             : en:00:23:04.383
  52. 00:33:17.996                             : en:00:33:17.996
  53. 00:38:24.302                             : en:00:38:24.302
  54. 00:44:43.681                             : en:00:44:43.681
  55. 00:50:14.011                             : en:00:50:14.011
  56. 00:57:08.425                             : en:00:57:08.425
  57. 01:04:57.894                             : en:01:04:57.894
  58. 01:15:27.523                             : en:01:15:27.523
  59. 01:20:30.826                             : en:01:20:30.826
复制代码




                                       
                                       

                                       
                                       
                                       




回复

使用道具 举报

懒得打字嘛,点击右侧快捷回复 【右侧内容,后台自定义】
您需要登录后才可以回帖 登录 | 立即加入

本版积分规则

Archiver|小黑屋| 蓝光电影网 |网站地图

Copyright © 2021 Comsenz Inc. Powered by 蓝光电影网

蓝光电影网

本站内容由用户自主分享和转载自互联网,转载目的在于传递更多信息,并不代表本网赞同其观点和对其真实性负责。

如有侵权、违反国家法律政策行为,请联系我们,我们会第一时间及时清除和处理!

举报反馈邮箱:[email protected]

快速回复 返回顶部 返回列表