找回密码

蓝光电影网

查看: 8|回复: 0

[惊悚] 孤身 Alone.2020.720p.BluRay.x264.DTS-FGT 4.78GB

[复制链接]
蓝光币
426
发表于 2021-2-16 09:31:45 | 显示全部楼层 |阅读模式


◎译  名 孤身
◎片  名 Alone
◎年  代 2020
◎产  地 美国
◎类  别 惊悚
◎语  言 英语
◎上映日期 2020-09-18(美国)
◎IMDb评分  6.2/10 from 8970 users
◎IMDb链接  https://www.imdb.com/title/tt7711170/
◎豆瓣评分 5.8/10 from 1139 users
◎豆瓣链接 https://movie.douban.com/subject/35050805/
◎片  长 98分钟
◎导  演 约翰·海姆斯 John Hyams
◎编  剧 马蒂亚斯·奥尔森 Mattias Olsson
◎主  演 朱尔斯·威尔科克斯 Jules Willcox
       马克·门查卡 Marc Menchaca
       安东尼·希尔德 Anthony Heald
◎标  签 惊悚 | 犯罪 | 逃杀 | 美国 | 2020 | 美国电影 | 电影 | 2020s
◎简  介


  一个刚死了丈夫的孀妇单独开车出城想减缓悲痛,却被一个陌生男人跟踪、绑架,关在人迹罕至的林中木屋里,并告诉她自己不是初犯。顽强的女子拼命逃了进来,在林间、河水里与残暴的绑架者展开周旋。
  1. Video
  2. ID                                       : 1
  3. Format                                   : AVC
  4. Format/Info                              : Advanced Video Codec
  5. Format profile                           : [email protected]
  6. Format settings                          : CABAC / 4 Ref Frames
  7. Format settings, CABAC                   : Yes
  8. Format settings, Reference frames        : 4 frames
  9. Codec ID                                 : V_MPEG4/ISO/AVC
  10. Duration                                 : 1 h 37 min
  11. Bit rate                                 : 5 500 kb/s
  12. Width                                    : 1 280 pixels
  13. Height                                   : 534 pixels
  14. Display aspect ratio                     : 2.40:1
  15. Original display aspect ratio            : 2.40:1
  16. Frame rate mode                          : Constant
  17. Frame rate                               : 24.000 FPS
  18. Color space                              : YUV
  19. Chroma subsampling                       : 4:2:0
  20. Bit depth                                : 8 bits
  21. Scan type                                : Progressive
  22. Bits/(Pixel*Frame)                       : 0.335
  23. Stream size                              : 3.75 GiB (78%)
  24. Writing library                          : x264 core 148 r2748 97eaef2
  25. Encoding settings                        : cabac=1 / ref=4 / deblock=1:-2:-2 / analyse=0x3:0x113 / me=umh / subme=9 / psy=1 / psy_rd=1.00:0.15 / mixed_ref=1 / me_range=16 / chroma_me=1 / trellis=2 / 8x8dct=1 / cqm=0 / deadzone=21,11 / fast_pskip=1 / chroma_qp_offset=-3 / threads=72 / lookahead_threads=3 / sliced_threads=0 / nr=0 / decimate=1 / interlaced=0 / bluray_compat=0 / constrained_intra=0 / bframes=3 / b_pyramid=2 / b_adapt=1 / b_bias=0 / direct=3 / weightb=1 / open_gop=0 / weightp=2 / keyint=250 / keyint_min=25 / scenecut=40 / intra_refresh=0 / rc_lookahead=50 / rc=2pass / mbtree=1 / bitrate=5500 / ratetol=1.0 / qcomp=0.60 / qpmin=0 / qpmax=69 / qpstep=4 / cplxblur=20.0 / qblur=0.5 / vbv_maxrate=31250 / vbv_bufsize=31250 / nal_hrd=none / filler=0 / ip_ratio=1.40 / aq=1:1.00
  26. Default                                  : Yes
  27. Forced                                   : No
  28. Audio
  29. ID                                       : 2
  30. Format                                   : DTS
  31. Format/Info                              : Digital Theater Systems
  32. Codec ID                                 : A_DTS
  33. Duration                                 : 1 h 37 min
  34. Bit rate mode                            : Constant
  35. Bit rate                                 : 1 509 kb/s
  36. Channel(s)                               : 6 channels
  37. Channel layout                           : C L R Ls Rs LFE
  38. Sampling rate                            : 48.0 kHz
  39. Frame rate                               : 93.750 FPS (512 SPF)
  40. Bit depth                                : 24 bits
  41. Compression mode                         : Lossy
  42. Stream size                              : 1.03 GiB (22%)
  43. Language                                 : English
  44. Default                                  : Yes
  45. Forced                                   : No
  46. Text
  47. ID                                       : 3
  48. Format                                   : UTF-8
  49. Codec ID                                 : S_TEXT/UTF8
  50. Codec ID/Info                            : UTF-8 Plain Text
  51. Duration                                 : 1 h 28 min
  52. Bit rate                                 : 23 b/s
  53. Count of elements                        : 554
  54. Stream size                              : 15.4 KiB (0%)
  55. Title                                    : English-SRT
  56. Language                                 : English
  57. Default                                  : Yes
  58. Forced                                   : No
  59. Menu
  60. 00:00:00.000                             : en:Chapter 01
  61. 00:07:52.917                             : en:Chapter 02
  62. 00:15:46.500                             : en:Chapter 03
  63. 00:23:53.292                             : en:Chapter 04
  64. 00:31:37.792                             : en:Chapter 05
  65. 00:39:48.875                             : en:Chapter 06
  66. 00:48:09.417                             : en:Chapter 07
  67. 00:55:56.000                             : en:Chapter 08
  68. 01:03:23.583                             : en:Chapter 09
  69. 01:12:00.500                             : en:Chapter 10
  70. 01:20:06.667                             : en:Chapter 11
  71. 01:28:11.542                             : en:Chapter 12
复制代码






                                       
                                       

                                       
                                       
                                       




回复

使用道具 举报

懒得打字嘛,点击右侧快捷回复 【右侧内容,后台自定义】
您需要登录后才可以回帖 登录 | 立即加入

本版积分规则

Archiver|小黑屋| 蓝光电影网 |网站地图

Copyright © 2021 Comsenz Inc. Powered by 蓝光电影网

蓝光电影网

本站内容由用户自主分享和转载自互联网,转载目的在于传递更多信息,并不代表本网赞同其观点和对其真实性负责。

如有侵权、违反国家法律政策行为,请联系我们,我们会第一时间及时清除和处理!

举报反馈邮箱:[email protected]

快速回复 返回顶部 返回列表