找回密码

蓝光电影网

查看: 5|回复: 0

[喜剧] 天使爱美丽 Amelie.2001.INTERNAL.720p.BluRay.x264-USURY 5.89GB

[复制链接]
蓝光币
382
发表于 2019-9-30 04:12:40 | 显示全部楼层 |阅读模式


◎译  名 天使爱美丽 / Amelie / 天使艾米莉 / 天使艾美丽 / 艾蜜丽 / 艾蜜莉的异想天下(台) / 阿梅丽的奇妙命运
◎片  名 Le fabuleux destin d'Amélie Poulain
◎年  代 2001
◎产  地 法国 / 德国
◎类  别 笑剧 / 恋爱
◎语  言 法语 / 俄语
◎上映日期 2001-04-25(法国) / 2001-08-16(德国)
◎IMDb评分  8.3/10 from 661230 users
◎IMDb链接  http://www.imdb.com/title/tt0211915
◎豆瓣评分 8.7/10 from 674667 users
◎豆瓣链接 https://movie.douban.com/subject/1292215/
◎片  长 122分钟
◎导  演 让-皮埃尔·热内 Jean-Pierre Jeunet
◎编  剧 纪尧姆·洛朗 Guillaume Laurant / 让-皮埃尔·热内 Jean-Pierre Jeunet
◎主  演 奥黛丽·塔图 Audrey Tautou
       马修·卡索维茨 Mathieu Kassovitz
       吕费斯 Rufus
       洛莱拉·克拉沃塔 Lorella Cravotta
       塞尔日·梅兰 Serge Merlin
       贾梅尔·杜布兹 Jamel Debbouze
       克洛蒂尔德·莫勒 Clotilde Mollet
       克莱尔·莫里耶 Claire Maurier
       伊莎贝尔·南蒂 Isabelle Nanty
       多米尼克·皮侬 Dominique Pinon
       艾特·迪·彭吉云 Artus de Penguern
       友兰达·梦露 Yolande Moreau
       于尔班·康塞利埃 Urbain Cancelier
       莫里斯·贝尼舒 Maurice Bénichou
       米歇尔·罗班 Michel Robin
       安德烈·达芒 Andrée Damant
       克洛德·佩隆 Claude Perron
       阿尔梅尔 Armelle
       迪基·奥尔加多 Ticky Holgado
       Kevin Fernandes
       弗洛拉·吉耶 Flora Guiet
       阿莫里·巴博尔 Amaury Babault
       欧仁·贝蒂埃 Eugène Berthier
       让·达里 Jean Darie
       马克·阿米约 Marc Amyot

◎标  签 法国 | 恋爱 | 奥黛丽·塔图 | 法国电影 | 典范 | 文艺 | 笑剧 | 浪漫
◎简  介  
  艾米莉(奥黛丽·塔图 Audrey Tautou 饰)有着他人看来不幸的童年——父亲给她做健康检查时,发现她心跳过快,便判定她得了心脏病,今后艾米莉与黉舍绝缘。随后由于一桩意外,母亲在她眼前忽然死去。这一切都绝不影响艾米莉对生活的豪迈悲观。
  1997年,戴安娜王妃的归天让她倍动人生的孤独懦弱,艾米莉今后起头了一系列助人计划,包括自闭郁闷的邻人老人,被老板刻薄的菜摊伙计、丢失了童年器物的旧房东、恋爱失意的咖啡店同事。但她万万想不到,成人录象带商铺伙计尼诺(马修·卡索维 Mathieu Kassovitz 饰),竟成为她的辣手工具,艾米莉起头了使人啼笑皆非的另类计划……
◎获奖情况  
  第74届奥斯卡金像奖(2002)
  最好原创剧本(提名) 让-皮埃尔·热内 / 纪尧姆·洛朗
  最好外语片(提名)
  最好摄影(提名) 布鲁诺·德尔邦内尔
  最好声响(提名) Guillaume Leriche / Vincent Arnardi / Jean Umansky
  最好艺术指导(提名) Marie-Laure Valla / 艾琳·博内托
  1. Video
  2. ID                                       : 1
  3. Format                                   : AVC
  4. Format/Info                              : Advanced Video Codec
  5. Format profile                           : [email protected]
  6. Format settings                          : CABAC / 5 Ref Frames
  7. Format settings, CABAC                   : Yes
  8. Format settings, Reference frames        : 5 frames
  9. Codec ID                                 : V_MPEG4/ISO/AVC
  10. Duration                                 : 2 h 2 min
  11. Bit rate                                 : 5 176 kb/s
  12. Width                                    : 1 280 pixels
  13. Height                                   : 542 pixels
  14. Display aspect ratio                     : 2.35:1
  15. Frame rate mode                          : Constant
  16. Frame rate                               : 23.976 (24000/1001) FPS
  17. Color space                              : YUV
  18. Chroma subsampling                       : 4:2:0
  19. Bit depth                                : 8 bits
  20. Scan type                                : Progressive
  21. Bits/(Pixel*Frame)                       : 0.311
  22. Stream size                              : 4.41 GiB (75%)
  23. Writing library                          : x264 core 157 r2969 d4099dd
  24. Encoding settings                        : cabac=1 / ref=5 / deblock=1:-3:-3 / analyse=0x3:0x133 / me=umh / subme=9 / psy=1 / psy_rd=1.00:0.00 / mixed_ref=1 / me_range=16 / chroma_me=1 / trellis=2 / 8x8dct=1 / cqm=0 / deadzone=21,11 / fast_pskip=0 / chroma_qp_offset=-2 / threads=17 / lookahead_threads=1 / sliced_threads=0 / nr=0 / decimate=1 / interlaced=0 / bluray_compat=0 / constrained_intra=0 / bframes=3 / b_pyramid=2 / b_adapt=1 / b_bias=0 / direct=3 / weightb=1 / open_gop=0 / weightp=2 / keyint=240 / keyint_min=24 / scenecut=40 / intra_refresh=0 / rc_lookahead=50 / rc=crf / mbtree=1 / crf=17.0 / qcomp=0.60 / qpmin=0 / qpmax=69 / qpstep=4 / ip_ratio=1.40 / aq=1:1.00
  25. Language                                 : English
  26. Default                                  : Yes
  27. Forced                                   : No

  28. Audio #1
  29. ID                                       : 2
  30. Format                                   : DTS
  31. Format/Info                              : Digital Theater Systems
  32. Codec ID                                 : A_DTS
  33. Duration                                 : 2 h 2 min
  34. Bit rate mode                            : Constant
  35. Bit rate                                 : 1 509 kb/s
  36. Channel(s)                               : 6 channels
  37. Channel layout                           : C L R Ls Rs LFE
  38. Sampling rate                            : 48.0 kHz
  39. Frame rate                               : 93.750 FPS (512 SPF)
  40. Bit depth                                : 24 bits
  41. Compression mode                         : Lossy
  42. Stream size                              : 1.29 GiB (22%)
  43. Language                                 : French
  44. Default                                  : Yes
  45. Forced                                   : No

  46. Audio #2
  47. ID                                       : 3
  48. Format                                   : AAC LC
  49. Format/Info                              : Advanced Audio Codec Low Complexity
  50. Codec ID                                 : A_AAC-2
  51. Duration                                 : 2 h 2 min
  52. Bit rate                                 : 125 kb/s
  53. Channel(s)                               : 2 channels
  54. Channel layout                           : L R
  55. Sampling rate                            : 48.0 kHz
  56. Frame rate                               : 46.875 FPS (1024 SPF)
  57. Compression mode                         : Lossy
  58. Delay relative to video                  : 9 ms
  59. Stream size                              : 109 MiB (2%)
  60. Title                                    : Commentary
  61. Language                                 : English
  62. Default                                  : No
  63. Forced                                   : No

  64. Text #1
  65. ID                                       : 4
  66. Format                                   : UTF-8
  67. Codec ID                                 : S_TEXT/UTF8
  68. Codec ID/Info                            : UTF-8 Plain Text
  69. Duration                                 : 1 h 56 min
  70. Bit rate                                 : 39 b/s
  71. Count of elements                        : 1069
  72. Stream size                              : 33.5 KiB (0%)
  73. Title                                    : English
  74. Language                                 : English
  75. Default                                  : Yes
  76. Forced                                   : Yes

  77. Text #2
  78. ID                                       : 5
  79. Format                                   : UTF-8
  80. Codec ID                                 : S_TEXT/UTF8
  81. Codec ID/Info                            : UTF-8 Plain Text
  82. Duration                                 : 1 h 56 min
  83. Bit rate                                 : 48 b/s
  84. Count of elements                        : 1546
  85. Stream size                              : 40.8 KiB (0%)
  86. Title                                    : English SDH
  87. Language                                 : English
  88. Default                                  : No
  89. Forced                                   : No

  90. Text #3
  91. ID                                       : 6
  92. Format                                   : PGS
  93. Muxing mode                              : zlib
  94. Codec ID                                 : S_HDMV/PGS
  95. Codec ID/Info                            : Picture based subtitle format used on BDs/HD-DVDs
  96. Duration                                 : 1 h 56 min
  97. Bit rate                                 : 15.2 kb/s
  98. Count of elements                        : 2138
  99. Stream size                              : 12.6 MiB (0%)
  100. Title                                    : English .sup
  101. Language                                 : English
  102. Default                                  : No
  103. Forced                                   : No

  104. Text #4
  105. ID                                       : 7
  106. Format                                   : PGS
  107. Muxing mode                              : zlib
  108. Codec ID                                 : S_HDMV/PGS
  109. Codec ID/Info                            : Picture based subtitle format used on BDs/HD-DVDs
  110. Duration                                 : 1 h 56 min
  111. Bit rate                                 : 19.1 kb/s
  112. Count of elements                        : 3092
  113. Stream size                              : 15.8 MiB (0%)
  114. Title                                    : English SDH .sup
  115. Language                                 : English
  116. Default                                  : No
  117. Forced                                   : No

  118. Text #5
  119. ID                                       : 8
  120. Format                                   : PGS
  121. Muxing mode                              : zlib
  122. Codec ID                                 : S_HDMV/PGS
  123. Codec ID/Info                            : Picture based subtitle format used on BDs/HD-DVDs
  124. Duration                                 : 1 h 56 min
  125. Bit rate                                 : 15.0 kb/s
  126. Count of elements                        : 1608
  127. Stream size                              : 12.5 MiB (0%)
  128. Language                                 : Danish
  129. Default                                  : No
  130. Forced                                   : No

  131. Text #6
  132. ID                                       : 9
  133. Format                                   : PGS
  134. Muxing mode                              : zlib
  135. Codec ID                                 : S_HDMV/PGS
  136. Codec ID/Info                            : Picture based subtitle format used on BDs/HD-DVDs
  137. Duration                                 : 1 h 57 min
  138. Bit rate                                 : 18.5 kb/s
  139. Count of elements                        : 1876
  140. Stream size                              : 15.6 MiB (0%)
  141. Language                                 : Finnish
  142. Default                                  : No
  143. Forced                                   : No

  144. Text #7
  145. ID                                       : 10
  146. Format                                   : PGS
  147. Muxing mode                              : zlib
  148. Codec ID                                 : S_HDMV/PGS
  149. Codec ID/Info                            : Picture based subtitle format used on BDs/HD-DVDs
  150. Duration                                 : 1 h 56 min
  151. Bit rate                                 : 15.7 kb/s
  152. Count of elements                        : 1968
  153. Stream size                              : 13.1 MiB (0%)
  154. Language                                 : Norwegian
  155. Default                                  : No
  156. Forced                                   : No

  157. Text #8
  158. ID                                       : 11
  159. Format                                   : PGS
  160. Muxing mode                              : zlib
  161. Codec ID                                 : S_HDMV/PGS
  162. Codec ID/Info                            : Picture based subtitle format used on BDs/HD-DVDs
  163. Duration                                 : 1 h 57 min
  164. Bit rate                                 : 18.0 kb/s
  165. Count of elements                        : 1668
  166. Stream size                              : 15.1 MiB (0%)
  167. Language                                 : Swedish
  168. Default                                  : No
  169. Forced                                   : No

  170. Menu
  171. 00:00:00.000                             : en:00:00:00.000
  172. 00:09:12.886                             : en:00:09:12.886
  173. 00:14:22.653                             : en:00:14:22.653
  174. 00:21:38.547                             : en:00:21:38.547
  175. 00:30:48.513                             : en:00:30:48.513
  176. 00:39:06.970                             : en:00:39:06.970
  177. 00:47:42.902                             : en:00:47:42.902
  178. 00:57:27.944                             : en:00:57:27.944
  179. 01:05:12.117                             : en:01:05:12.117
  180. 01:11:30.369                             : en:01:11:30.369
  181. 01:17:28.394                             : en:01:17:28.394
  182. 01:25:36.798                             : en:01:25:36.798
  183. 01:32:42.974                             : en:01:32:42.974
  184. 01:39:07.650                             : en:01:39:07.650
  185. 01:45:19.355                             : en:01:45:19.355
  186. 01:51:47.701                             : en:01:51:47.701
复制代码




                                       
                                       

                                       
                                       
                                       




回复

使用道具 举报

懒得打字嘛,点击右侧快捷回复 【右侧内容,后台自定义】
您需要登录后才可以回帖 登录 | 立即加入

本版积分规则

Archiver|小黑屋| 蓝光电影网 |网站地图

Copyright © 2021 Comsenz Inc. Powered by 蓝光电影网

蓝光电影网

本站内容由用户自主分享和转载自互联网,转载目的在于传递更多信息,并不代表本网赞同其观点和对其真实性负责。

如有侵权、违反国家法律政策行为,请联系我们,我们会第一时间及时清除和处理!

举报反馈邮箱:[email protected]

快速回复 返回顶部 返回列表