找回密码

蓝光电影网

查看: 22|回复: 0

[恐怖] 魔灵 Dont.Panic.1988.1080p.BluRay.x264.FLAC.2.0-HANDJOB 7.88GB

[复制链接]
蓝光币
426
发表于 2020-12-20 10:05:22 | 显示全部楼层 |阅读模式
[img][/img]

◎译  名 魔灵
◎片  名 Don't Panic
◎年  代 1988
◎产  地 墨西哥,美国
◎类  别 可骇
◎语  言 英语
◎上映日期 1989-03-02
◎IMDb评分  5/10 from 402 users
◎IMDb链接  https://www.imdb.com/title/tt0193879/
◎豆瓣评分 /10 from 0 users
◎豆瓣链接 https://movie.douban.com/subject/2067496/
◎片  长 90 分钟
◎导  演 小鲁文·加林多 Rubén Galindo Jr.
◎编  剧 小鲁文·加林多 Rubén Galindo Jr.
◎主  演 Raúl Araiza
       马里奥·伊万·马丁内斯 Mario Iván Martínez
       塞西莉亚·提杰琳娜 Cecilia Tijerina
       海伦娜·罗霍 Helena Rojo
       爱德华多·诺列加 Eduardo Noriega
       Roberto Palazuelos
       梅琳达·麦卡勒姆 Melinda McCallum
       何塞·埃雷拉 Jose Herrera
       Evangelina Elizondo
       Edna Bolkan
◎标  签 可骇 | 美国 | 墨西哥电影 | 墨西哥 | 青春 | 美国电影 | 惊悚 | 可骇+鬼片
◎简  介


  在他17岁生日那天,迈克尔收到了他最好的朋友托尼的一份Ouija董事会礼物。在一次会议上,托尼利用一种被他称为“维吉尔”的媒体,无意中解开了董事会的邪恶气力。很快就出现了一波暴力杀人事务,首席怀疑人似乎是迈克尔。他经过预见和身材体验来见证一切的杀戮。迈克尔是杀手吗?他能证实他是无辜的吗,还是被恶魔附身的人?
  1. Video
  2. ID                                       : 1
  3. Format                                   : AVC
  4. Format/Info                              : Advanced Video Codec
  5. Format profile                           : [email protected]
  6. Format settings                          : CABAC / 4 Ref Frames
  7. Format settings, CABAC                   : Yes
  8. Format settings, Reference frames        : 4 frames
  9. Codec ID                                 : V_MPEG4/ISO/AVC
  10. Duration                                 : 1 h 30 min
  11. Bit rate                                 : 11.9 Mb/s
  12. Width                                    : 1 920 pixels
  13. Height                                   : 1 036 pixels
  14. Display aspect ratio                     : 1.85:1
  15. Frame rate mode                          : Constant
  16. Frame rate                               : 23.976 (24000/1001/189150) FPS
  17. Color space                              : YUV
  18. Chroma subsampling                       : 4:2:0
  19. Bit depth                                : 8 bits
  20. Scan type                                : Progressive
  21. Bits/(Pixel*Frame)                       : 0.249
  22. Stream size                              : 7.50 GiB (95%)
  23. Writing library                          : x264 core 160 r3009 4c9b076
  24. Encoding settings                        : cabac=1 / ref=4 / deblock=1:-3:-3 / analyse=0x3:0x133 / me=umh / subme=10 / psy=1 / psy_rd=1.00:0.00 / mixed_ref=1 / me_range=32 / chroma_me=1 / trellis=2 / 8x8dct=1 / cqm=0 / deadzone=21,11 / fast_pskip=0 / chroma_qp_offset=-2 / threads=6 / lookahead_threads=1 / sliced_threads=0 / nr=0 / decimate=0 / interlaced=0 / bluray_compat=0 / constrained_intra=0 / bframes=16 / b_pyramid=2 / b_adapt=2 / b_bias=0 / direct=3 / weightb=1 / open_gop=0 / weightp=2 / keyint=250 / keyint_min=23 / scenecut=40 / intra_refresh=0 / rc_lookahead=60 / rc=crf / mbtree=0 / crf=23.0 / qcomp=0.60 / qpmin=0 / qpmax=69 / qpstep=4 / vbv_maxrate=62500 / vbv_bufsize=78125 / crf_max=0.0 / nal_hrd=none / filler=0 / ip_ratio=1.40 / pb_ratio=1.30 / aq=2:1.00
  25. Default                                  : Yes
  26. Forced                                   : No
  27. Color range                              : Limited
  28. Color primaries                          : BT.709
  29. Matrix coefficients                      : BT.709
  30. Audio #1
  31. ID                                       : 2
  32. Format                                   : FLAC
  33. Format/Info                              : Free Lossless Audio Codec
  34. Codec ID                                 : A_FLAC
  35. Duration                                 : 1 h 30 min
  36. Bit rate mode                            : Variable
  37. Bit rate                                 : 454 kb/s
  38. Channel(s)                               : 2 channels
  39. Channel layout                           : L R
  40. Sampling rate                            : 48.0 kHz
  41. Frame rate                               : 11.719 FPS (4096 SPF)
  42. Bit depth                                : 16 bits
  43. Compression mode                         : Lossless
  44. Stream size                              : 293 MiB (4%)
  45. Writing library                          : libFLAC 1.2.1 (UTC 2007-09-17)
  46. Language                                 : English
  47. Default                                  : Yes
  48. Forced                                   : No
  49. Audio #2
  50. ID                                       : 3
  51. Format                                   : AAC LC
  52. Format/Info                              : Advanced Audio Codec Low Complexity
  53. Codec ID                                 : A_AAC-2
  54. Duration                                 : 1 h 30 min
  55. Bit rate                                 : 66.2 kb/s
  56. Channel(s)                               : 2 channels
  57. Channel layout                           : L R
  58. Sampling rate                            : 48.0 kHz
  59. Frame rate                               : 46.875 FPS (1024 SPF)
  60. Compression mode                         : Lossy
  61. Stream size                              : 42.9 MiB (1%)
  62. Title                                    : Commentary with director Rubén Galindo Jr.
  63. Language                                 : English
  64. Default                                  : No
  65. Forced                                   : No
  66. Audio #3
  67. ID                                       : 4
  68. Format                                   : AAC LC
  69. Format/Info                              : Advanced Audio Codec Low Complexity
  70. Codec ID                                 : A_AAC-2
  71. Duration                                 : 1 h 30 min
  72. Bit rate                                 : 78.9 kb/s
  73. Channel(s)                               : 2 channels
  74. Channel layout                           : L R
  75. Sampling rate                            : 48.0 kHz
  76. Frame rate                               : 46.875 FPS (1024 SPF)
  77. Compression mode                         : Lossy
  78. Stream size                              : 50.9 MiB (1%)
  79. Title                                    : Commentary with The Hysteria Continues
  80. Language                                 : English
  81. Default                                  : No
  82. Forced                                   : No
  83. Text
  84. ID                                       : 5
  85. Format                                   : UTF-8
  86. Codec ID                                 : S_TEXT/UTF8
  87. Codec ID/Info                            : UTF-8 Plain Text
  88. Duration                                 : 1 h 29 min
  89. Bit rate                                 : 38 b/s
  90. Count of elements                        : 1132
  91. Stream size                              : 25.3 KiB (0%)
  92. Language                                 : English
  93. Default                                  : No
  94. Forced                                   : No
  95. Menu
  96. 00:00:00.000                             : en:Chapter 01
  97. 00:20:00.199                             : en:Chapter 02
  98. 00:40:21.920                             : en:Chapter 03
  99. 01:00:49.646                             : en:Chapter 04
  100. 01:21:41.397                             : en:Chapter 05
复制代码



                                       
                                       

                                       
                                       
                                       




回复

使用道具 举报

懒得打字嘛,点击右侧快捷回复 【右侧内容,后台自定义】
您需要登录后才可以回帖 登录 | 立即加入

本版积分规则

Archiver|小黑屋| 蓝光电影网 |网站地图

Copyright © 2021 Comsenz Inc. Powered by 蓝光电影网

蓝光电影网

本站内容由用户自主分享和转载自互联网,转载目的在于传递更多信息,并不代表本网赞同其观点和对其真实性负责。

如有侵权、违反国家法律政策行为,请联系我们,我们会第一时间及时清除和处理!

举报反馈邮箱:[email protected]

快速回复 返回顶部 返回列表