找回密码

蓝光电影网

查看: 21|回复: 0

[惊悚] 晒尸体 Let.the.Corpses.Tan.2017.720p.BluRay.x264-USURY 2.65GB

[复制链接]
蓝光币
426
发表于 2021-2-16 08:49:21 | 显示全部楼层 |阅读模式


◎译  名 晒尸身/Let the Corpses Tan/曝尸烈日下(港)
◎片  名 Laissez bronzer les cadavres!
◎年  代 2017
◎产  地 法国,比利时
◎类  别 惊悚
◎语  言 法语
◎上映日期 2017-10-18(法国) / 2018-01-10(比利时)
◎IMDb评分  6.3/10 from 2602 users
◎IMDb链接  https://www.imdb.com/title/tt5827212/
◎豆瓣评分 5.3/10 from 929 users
◎豆瓣链接 https://movie.douban.com/subject/27019774/
◎片  长 92分钟
◎导  演 伊莲娜·卡泰特 Hélène Cattet / 布鲁诺·福扎尼 Bruno Forzani
◎编  剧 让-皮埃尔·巴斯蒂 Jean-Pierre Bastid / 伊莲娜·卡泰特 Hélène Cattet / 布鲁诺·福扎尼 Bruno Forzani / 让·帕特里克·莫夏特 Jean-Patrick Manchette
◎主  演 埃琳娜·勒文松 Elina L?wensohn
       斯特凡纳·费拉拉 Stéphane Ferrara
       Bernie Bonvoisin
       马克·巴贝 Marc Barbé
◎标  签 法国 | 犯罪 | 2017 | Cult | 惊悚 | 奇异 | 法国电影 | 西部片
◎简  介


  故事发生在位于地中海沿岸一个偏僻的废墟中,疯癫癫的女艺术家卢斯(埃琳娜·勒文松 Elina L?wensohn 饰)长居于此,过着与世隔断的生活。近一段时候,作家马特·贝尼埃也来到废墟,时不时和卢斯开起晒尸身派对。艳阳高照,百无聊赖。这一天,四个劫匪劫持了250千克黄金,他们非别是首领里诺、胖子、阿莱克斯以及律师布里索尔格耶。他们驱车狂奔,成果半路上搭在了名叫梅拉妮的女子及其家人。梅拉妮是贝尼埃的妻子,两人正闹仳离,因而她带着保姆和孩子千里迢迢来寻觅同床异梦的丈夫。到了废墟,抢劫团伙中有人试图独占黄金,而就在此时,两名巡警也来到了这里。
  
  枪战遽然发生,一切朝着不成猜测的偏向成长……
  1. Video
  2. ID                                       : 1
  3. Format                                   : AVC
  4. Format/Info                              : Advanced Video Codec
  5. Format profile                           : [email protected]
  6. Format settings                          : CABAC / 12 Ref Frames
  7. Format settings, CABAC                   : Yes
  8. Format settings, Reference frames        : 12 frames
  9. Codec ID                                 : V_MPEG4/ISO/AVC
  10. Duration                                 : 1 h 31 min
  11. Bit rate                                 : 3 477 kb/s
  12. Width                                    : 1 280 pixels
  13. Height                                   : 544 pixels
  14. Display aspect ratio                     : 2.35:1
  15. Frame rate mode                          : Constant
  16. Frame rate                               : 24.000 FPS
  17. Color space                              : YUV
  18. Chroma subsampling                       : 4:2:0
  19. Bit depth                                : 8 bits
  20. Scan type                                : Progressive
  21. Bits/(Pixel*Frame)                       : 0.208
  22. Stream size                              : 2.23 GiB (84%)
  23. Writing library                          : x264 core 161 r3027 4121277
  24. Encoding settings                        : cabac=1 / ref=12 / deblock=1:-3:-3 / analyse=0x3:0x133 / me=umh / subme=10 / psy=1 / psy_rd=1.00:0.15 / mixed_ref=1 / me_range=24 / chroma_me=1 / trellis=2 / 8x8dct=1 / cqm=0 / deadzone=21,11 / fast_pskip=1 / chroma_qp_offset=-3 / threads=17 / lookahead_threads=2 / sliced_threads=0 / nr=0 / decimate=1 / interlaced=0 / bluray_compat=0 / constrained_intra=0 / bframes=8 / b_pyramid=2 / b_adapt=2 / b_bias=0 / direct=3 / weightb=1 / open_gop=0 / weightp=2 / keyint=250 / keyint_min=24 / scenecut=40 / intra_refresh=0 / rc_lookahead=60 / rc=crf / mbtree=1 / crf=17.0 / qcomp=0.60 / qpmin=0 / qpmax=69 / qpstep=4 / ip_ratio=1.40 / aq=3:0.60
  25. Language                                 : English
  26. Default                                  : Yes
  27. Forced                                   : No
  28. Color range                              : Limited
  29. Matrix coefficients                      : BT.709

  30. Audio
  31. ID                                       : 2
  32. Format                                   : AC-3
  33. Format/Info                              : Audio Coding 3
  34. Commercial name                          : Dolby Digital
  35. Codec ID                                 : A_AC3
  36. Duration                                 : 1 h 31 min
  37. Bit rate mode                            : Constant
  38. Bit rate                                 : 640 kb/s
  39. Channel(s)                               : 6 channels
  40. Channel layout                           : L R C LFE Ls Rs
  41. Sampling rate                            : 48.0 kHz
  42. Frame rate                               : 31.250 FPS (1536 SPF)
  43. Compression mode                         : Lossy
  44. Stream size                              : 421 MiB (15%)
  45. Language                                 : French
  46. Service kind                             : Complete Main
  47. Default                                  : Yes
  48. Forced                                   : No

  49. Text #1
  50. ID                                       : 3
  51. Format                                   : UTF-8
  52. Codec ID                                 : S_TEXT/UTF8
  53. Codec ID/Info                            : UTF-8 Plain Text
  54. Duration                                 : 1 h 27 min
  55. Bit rate                                 : 17 b/s
  56. Count of elements                        : 369
  57. Stream size                              : 11.3 KiB (0%)
  58. Title                                    : English
  59. Language                                 : English
  60. Default                                  : Yes
  61. Forced                                   : Yes

  62. Text #2
  63. ID                                       : 4
  64. Format                                   : PGS
  65. Muxing mode                              : zlib
  66. Codec ID                                 : S_HDMV/PGS
  67. Codec ID/Info                            : Picture based subtitle format used on BDs/HD-DVDs
  68. Duration                                 : 1 h 27 min
  69. Bit rate                                 : 3 654 b/s
  70. Count of elements                        : 738
  71. Stream size                              : 2.29 MiB (0%)
  72. Title                                    : English
  73. Language                                 : English
  74. Default                                  : No
  75. Forced                                   : No

  76. Text #3
  77. ID                                       : 5
  78. Format                                   : UTF-8
  79. Codec ID                                 : S_TEXT/UTF8
  80. Codec ID/Info                            : UTF-8 Plain Text
  81. Duration                                 : 1 h 31 min
  82. Bit rate                                 : 21 b/s
  83. Count of elements                        : 641
  84. Stream size                              : 14.8 KiB (0%)
  85. Title                                    : French SDH
  86. Language                                 : French
  87. Default                                  : No
  88. Forced                                   : No

  89. Text #4
  90. ID                                       : 6
  91. Format                                   : PGS
  92. Muxing mode                              : zlib
  93. Codec ID                                 : S_HDMV/PGS
  94. Codec ID/Info                            : Picture based subtitle format used on BDs/HD-DVDs
  95. Duration                                 : 1 h 31 min
  96. Bit rate                                 : 4 447 b/s
  97. Count of elements                        : 1282
  98. Stream size                              : 2.92 MiB (0%)
  99. Title                                    : French SDH
  100. Language                                 : French
  101. Default                                  : No
  102. Forced                                   : No

  103. Text #5
  104. ID                                       : 7
  105. Format                                   : PGS
  106. Muxing mode                              : zlib
  107. Codec ID                                 : S_HDMV/PGS
  108. Codec ID/Info                            : Picture based subtitle format used on BDs/HD-DVDs
  109. Duration                                 : 1 h 27 min
  110. Bit rate                                 : 3 471 b/s
  111. Count of elements                        : 738
  112. Stream size                              : 2.18 MiB (0%)
  113. Title                                    : Dutch
  114. Language                                 : Dutch
  115. Default                                  : No
  116. Forced                                   : No

  117. Menu
  118. 00:00:00.000                             : en:00:00:00.000
  119. 00:09:20.833                             : en:00:09:20.833
  120. 00:12:09.708                             : en:00:12:09.708
  121. 00:19:02.083                             : en:00:19:02.083
  122. 00:23:41.333                             : en:00:23:41.333
  123. 00:24:51.292                             : en:00:24:51.292
  124. 00:26:40.792                             : en:00:26:40.792
  125. 00:28:05.958                             : en:00:28:05.958
  126. 00:36:22.000                             : en:00:36:22.000
  127. 00:41:40.250                             : en:00:41:40.250
  128. 00:48:19.083                             : en:00:48:19.083
  129. 00:52:07.583                             : en:00:52:07.583
  130. 00:56:28.083                             : en:00:56:28.083
  131. 00:57:50.792                             : en:00:57:50.792
  132. 01:02:09.625                             : en:01:02:09.625
  133. 01:03:43.792                             : en:01:03:43.792
  134. 01:06:50.208                             : en:01:06:50.208
  135. 01:10:28.167                             : en:01:10:28.167
  136. 01:14:18.875                             : en:01:14:18.875
  137. 01:19:02.542                             : en:01:19:02.542
  138. 01:27:59.167                             : en:01:27:59.167
复制代码




                                       
                                       

                                       
                                       
                                       




回复

使用道具 举报

懒得打字嘛,点击右侧快捷回复 【右侧内容,后台自定义】
您需要登录后才可以回帖 登录 | 立即加入

本版积分规则

Archiver|小黑屋| 蓝光电影网 |网站地图

Copyright © 2021 Comsenz Inc. Powered by 蓝光电影网

蓝光电影网

本站内容由用户自主分享和转载自互联网,转载目的在于传递更多信息,并不代表本网赞同其观点和对其真实性负责。

如有侵权、违反国家法律政策行为,请联系我们,我们会第一时间及时清除和处理!

举报反馈邮箱:[email protected]

快速回复 返回顶部 返回列表