找回密码

蓝光电影网

查看: 22|回复: 0

[恐怖] 黑洞异变 Nightwish.1989.1080p.BluRay.x264-GUACAMOLE 10.54GB

[复制链接]
蓝光币
386
发表于 2020-12-19 17:53:49 | 显示全部楼层 |阅读模式
[img][/img]

◎译  名 黑洞异变
◎片  名 Nightwish
◎年  代 1989
◎产  地 美国
◎类  别 可骇
◎语  言 英语
◎上映日期 
◎IMDb评分  4.9/10 from 743 users
◎IMDb链接  https://www.imdb.com/title/tt0097982/
◎豆瓣评分 /10 from 0 users
◎豆瓣链接 https://movie.douban.com/subject/1298681/
◎片  长 96分钟
◎主  演 布莱恩·汤普森 Brian Thompson
       杰克·斯塔雷特 Jack Starrett
       Elizabeth Kaitan
       Artur Cybulski
       克莱顿·罗赫内尔 Clayton Rohner
       Robert Tessier
◎标  签 可骇 | 美国电影 | B级片 | CULT | 美国 | 惊悚 | 长片 | 邪典
◎简  介


  一群青少年去一个远程站点加入一个梦幻般的尝试中,经过一种反动性的新方式,将拜候最糟糕的噩梦,但他们可以检察他们忽然做噩梦不再成为虚幻地 超越四周的地方的现实。 现在,没有人是平安的。 尝试已经落空了一切的控制。
  1. Video
  2. ID                                       : 1
  3. Format                                   : AVC
  4. Format/Info                              : Advanced Video Codec
  5. Format profile                           : [email protected]
  6. Format settings                          : CABAC / 4 Ref Frames
  7. Format settings, CABAC                   : Yes
  8. Format settings, Reference frames        : 4 frames
  9. Codec ID                                 : V_MPEG4/ISO/AVC
  10. Duration                                 : 1 h 31 min
  11. Bit rate                                 : 15.9 Mb/s
  12. Width                                    : 1 920 pixels
  13. Height                                   : 1 080 pixels
  14. Display aspect ratio                     : 16:9
  15. Frame rate mode                          : Constant
  16. Frame rate                               : 23.976 (24000/1001/189150) FPS
  17. Color space                              : YUV
  18. Chroma subsampling                       : 4:2:0
  19. Bit depth                                : 8 bits
  20. Scan type                                : Progressive
  21. Bits/(Pixel*Frame)                       : 0.320
  22. Stream size                              : 10.2 GiB (97%)
  23. Writing library                          : x264 core 161 r3027 4121277
  24. Encoding settings                        : cabac=1 / ref=4 / deblock=1:-3:-3 / analyse=0x3:0x133 / me=umh / subme=9 / psy=1 / psy_rd=1.00:0.00 / mixed_ref=1 / me_range=16 / chroma_me=1 / trellis=2 / 8x8dct=1 / cqm=0 / deadzone=21,11 / fast_pskip=0 / chroma_qp_offset=-2 / threads=24 / lookahead_threads=2 / sliced_threads=0 / nr=0 / decimate=1 / interlaced=0 / bluray_compat=0 / constrained_intra=0 / bframes=3 / b_pyramid=2 / b_adapt=2 / b_bias=0 / direct=3 / weightb=1 / open_gop=0 / weightp=2 / keyint=250 / keyint_min=23 / scenecut=40 / intra_refresh=0 / rc_lookahead=60 / rc=crf / mbtree=1 / crf=21.0 / qcomp=0.60 / qpmin=0 / qpmax=69 / qpstep=4 / ip_ratio=1.40 / aq=3:0.60
  25. Default                                  : Yes
  26. Forced                                   : No
  27. Color range                              : Limited
  28. Color primaries                          : BT.709
  29. Transfer characteristics                 : BT.709
  30. Matrix coefficients                      : BT.709

  31. Audio #1
  32. ID                                       : 2
  33. Format                                   : AC-3
  34. Format/Info                              : Audio Coding 3
  35. Commercial name                          : Dolby Digital
  36. Codec ID                                 : A_AC3
  37. Duration                                 : 1 h 31 min
  38. Bit rate mode                            : Constant
  39. Bit rate                                 : 384 kb/s
  40. Channel(s)                               : 2 channels
  41. Channel layout                           : L R
  42. Sampling rate                            : 48.0 kHz
  43. Frame rate                               : 31.250 FPS (1536 SPF)
  44. Compression mode                         : Lossy
  45. Stream size                              : 252 MiB (2%)
  46. Language                                 : English
  47. Service kind                             : Complete Main
  48. Default                                  : Yes
  49. Forced                                   : No

  50. Audio #2
  51. ID                                       : 3
  52. Format                                   : AAC LC
  53. Format/Info                              : Advanced Audio Codec Low Complexity
  54. Codec ID                                 : A_AAC-2
  55. Duration                                 : 1 h 31 min
  56. Bit rate                                 : 159 kb/s
  57. Channel(s)                               : 2 channels
  58. Channel layout                           : L R
  59. Sampling rate                            : 48.0 kHz
  60. Frame rate                               : 46.875 FPS (1024 SPF)
  61. Compression mode                         : Lossy
  62. Delay relative to video                  : 9 ms
  63. Stream size                              : 104 MiB (1%)
  64. Title                                    : Commentary
  65. Language                                 : English
  66. Default                                  : No
  67. Forced                                   : No

  68. Menu
  69. 00:00:00.000                             : en:00:00:00.000
  70. 00:10:26.084                             : en:00:10:26.084
  71. 00:21:09.351                             : en:00:21:09.351
  72. 00:31:35.310                             : en:00:31:35.310
  73. 00:42:17.035                             : en:00:42:17.035
  74. 00:53:20.656                             : en:00:53:20.656
  75. 01:03:18.962                             : en:01:03:18.962
  76. 01:14:56.909                             : en:01:14:56.909
复制代码



                                       
                                       

                                       
                                       
                                       




回复

使用道具 举报

懒得打字嘛,点击右侧快捷回复 【右侧内容,后台自定义】
您需要登录后才可以回帖 登录 | 立即加入

本版积分规则

Archiver|小黑屋| 蓝光电影网 |网站地图

Copyright © 2021 Comsenz Inc. Powered by 蓝光电影网

蓝光电影网

本站内容由用户自主分享和转载自互联网,转载目的在于传递更多信息,并不代表本网赞同其观点和对其真实性负责。

如有侵权、违反国家法律政策行为,请联系我们,我们会第一时间及时清除和处理!

举报反馈邮箱:[email protected]

快速回复 返回顶部 返回列表